Register · 
Username: Password:
 ·  Forgot password?

[TR24][OF] Steve Roach - A Soul Ascends - 2020 (Ambient, Drone, Berlin-School)

Reply to topic
DL-List and Torrent activity [Update пиров]
Size:  1.31 GB   |    Registered:  2 months 5 days   |    Completed:  0 times

Seeder not seen: Never

 
   
 
 
 
Author Message

Nestor_13 ®

Gender:

Longevity: 7 years

Posts: 25873

Post 20-Aug-2020 17:50

[Quote]

Steve Roach -- A Soul Ascends--Формат записи/Источник записи: [TR24][OF]
Наличие водяных знаков: Нет
Год издания/переиздания диска: 2020
Жанр: Ambient, Drone, Berlin-School
Издатель (лейбл): Projekt
Продолжительность: 01:13:58
Наличие сканов в содержимом раздачи: Буклет PDF
Источник (релизер): RED Uploaded by andvita steveroach.com--Треклист:
01. The Radiant Return [32:14]
02. In Present Space [16:01]
03. Reflection in Ascension [25:42]--Контейнер: FLAC (*.flac)
Тип рипа: tracks
Разрядность: 24/96
Формат: PCM
Количество каналов: 2.0

Лог проверки качества

foobar2000 1.3.16 / Замер динамического диапазона (DR) 1.1.1Дата отчёта:  2020-07-14 19:24:27
--------------------------------------------------------------------------------Анализ: Steve Roach / A Soul Ascends--------------------------------------------------------------------------------
DR Пики RMS Продолжительность трека--------------------------------------------------------------------------------DR10 -0.27 дБ -14.34 дБ 32:14 01-The Radiant ReturnDR9 -0.27 дБ -13.82 дБ 16:01 02-In Present SpaceDR10 -0.27 дБ -14.69 дБ 25:43 03-Reflection in Ascension--------------------------------------------------------------------------------
Количество треков: 3Реальные значения DR: DR10
Частота: 96000 ГцКаналов: 2Разрядность: 24Битрейт: 2496 кбит/сКодек: FLAC================================================================================

Скриншот спектра частот

http://steveroach.bandcamp.com/album/a-soul-ascends
[protorrent.xyz]_t-5919354
Torrent: Registered ·  [ 2020-08-20 17:50 ] ·  b8bb2adf821f4079314ee8ddea26b6775bfbf1b5

14 KB

Status: checked
Completed: 0 times
Size: 1.31 GB
Rating: 
(Votes: 0)
Say thanks: 0  Thanks
 
Похожие темы
[Profile] [PM]
Display posts from previous:    
Reply to topic

The time now is: Today 11:27

All times are GMT + 7 Hours



You cannot post new topics in this forum
You cannot reply to topics in this forum
You cannot edit your posts in this forum
You cannot delete your posts in this forum
You cannot vote in polls in this forum
You cannot attach files in this forum
You can download files in this forum