Register · 
Username: Password:
 ·  Forgot password?

[TR24][OF] Steve Roach - Structures from Silence (30th Anniversary Remastered Edition) - 1984/2014 (Ambient, Drone, Berlin-School)

Reply to topic
DL-List and Torrent activity [Update пиров]
Size:  1.05 GB   |    Registered:  2 months 5 days   |    Completed:  0 times

Seeder not seen: Never

 
   
 
 
 
Author Message

Nestor_13 ®

Gender:

Longevity: 7 years

Posts: 25873

Post 20-Aug-2020 17:50

[Quote]

Steve Roach -- Structures from Silence (30th Anniversary Remastered Edition)-Формат записи/Источник записи: [TR24][OF]
Наличие водяных знаков: Нет
Год издания/переиздания диска: 1984/2014
Жанр: Ambient, Drone, Berlin-School
Издатель (лейбл): Spotted Peccary
Продолжительность: 00:58:53
Наличие сканов в содержимом раздачи: Буклет PDF
Источник (релизер): RED Uploaded by 6nakedpigs spottedpeccary.com-Треклист:
01. Steve Roach - Reflections in Suspension [16:44]
02. Steve Roach - Quiet Friend [13:21]
03. Steve Roach - Structures from Silence [28:48]-Контейнер: FLAC (*.flac)
Тип рипа: tracks
Разрядность: 24/96
Формат: PCM
Количество каналов: 2.0

Лог проверки качества

foobar2000 1.5.5 / Замер динамического диапазона (DR) 1.1.1Дата отчёта:  2020-07-18 23:37:50
--------------------------------------------------------------------------------Анализ: Steve Roach / Structures from Silence (30th Anniversary Remastered Edition)--------------------------------------------------------------------------------
DR Пики RMS Продолжительность трека--------------------------------------------------------------------------------DR11 -0.52 дБ -19.17 дБ 16:44 1/3-Reflections in SuspensionDR11 -3.03 дБ -18.91 дБ 13:21 2/3-Quiet FriendDR12 -0.64 дБ -17.23 дБ 28:48 3/3-Structures from Silence--------------------------------------------------------------------------------
Количество треков: 3Реальные значения DR: DR11
Частота: 96000 ГцКаналов: 2Разрядность: 24Битрейт: 2499 кбит/сКодек: FLAC================================================================================

Скриншот спектра частот

[protorrent.xyz]_t-5920848
Torrent: Registered ·  [ 2020-08-20 17:50 ] ·  ee29740b5ea1123047e27cb925847482ef4388d2

11 KB

Status: checked
Completed: 0 times
Size: 1.05 GB
Rating: 
(Votes: 0)
Say thanks: 0  Thanks
 
Похожие темы
[Profile] [PM]
Display posts from previous:    
Reply to topic

The time now is: Today 10:23

All times are GMT + 7 Hours



You cannot post new topics in this forum
You cannot reply to topics in this forum
You cannot edit your posts in this forum
You cannot delete your posts in this forum
You cannot vote in polls in this forum
You cannot attach files in this forum
You can download files in this forum