Register · 
Username: Password:
 ·  Forgot password?

(art rock) Ivory - Sad Cypress - 1979 (MALS, MALS039 FGBG 4089 AR, Russia), FLAC (image+.cue), lossless

Reply to topic
DL-List and Torrent activity [Update пиров]
Size:  635 MB   |    Registered:  1 month 2 days   |    Completed:  0 times

Seeder not seen: Never

 
   
 
 
 
Author Message

kadSM ®

Gender:

Longevity: 6 years 8 months

Posts: 21178

Post 03-May-2020 22:15

[Quote]

IvorySad Cypress -
Жанр: art rock
Носитель: CD
Страна-производитель диска: Russia
Год издания: 2000
Издатель (лейбл): MALS
Номер по каталогу: MALS039 FGBG 4089 AR
Страна: Germany
Аудиокодек: FLAC (*.flac)
Тип рипа: image+.cue
Битрейт аудио: lossless
Продолжительность: 70'29"
Источник (релизер): собственный диск
Наличие сканов в содержимом раздачи: 600 dpi, JPG
-Треклист:

01. At This Very Moment 3.57
02. In Hora Ultima 7.18
03. Sad Cypress 8.46
04. Time Traveller 4.19
05. My Brother 13.57
06. The Great Tower 9.51
07. Incantation 4.48
08. Construction N2 2.40
09. Barbara 14.44
-

xld

X Lossless Decoder version 20181019 (151.1)
XLD extraction logfile from 2020-04-04 19:30:26 +0300
Ivory / Sad Cypress
Used drive : HL-DT-ST DVD-RW GH61N (revision PA03)Media type : Pressed CD
Ripper mode : XLD Secure RipperDisable audio cache : OK for the drive with a cache less than 1375KiBMake use of C2 pointers : NORead offset correction : 667Max retry count : 20Gap status : Analyzed, Appended
TOC of the extracted CD Track | Start | Length | Start sector | End sector --------------------------------------------------------- 1 | 00:00:32 | 04:02:55 | 32 | 18236 2 | 04:03:12 | 07:18:38 | 18237 | 51124 3 | 11:21:50 | 08:46:17 | 51125 | 90591 4 | 20:07:67 | 04:19:55 | 90592 | 110071 5 | 24:27:47 | 13:57:63 | 110072 | 172909 6 | 38:25:35 | 09:51:15 | 172910 | 217249 7 | 48:16:50 | 04:48:30 | 217250 | 238879 8 | 53:05:05 | 02:40:45 | 238880 | 250924 9 | 55:45:50 | 14:44:30 | 250925 | 317254
AccurateRip Summary (DiscID: 0016638e-00a7e36e-89108609) Track 01 : OK (v2, confidence 2/13) Track 02 : OK (v2, confidence 2/13) Track 03 : OK (v2, confidence 2/13) Track 04 : OK (v2, confidence 2/13) Track 05 : OK (v2, confidence 2/13) Track 06 : OK (v2, confidence 2/13) Track 07 : OK (v2, confidence 2/13) Track 08 : OK (v2, confidence 2/13) Track 09 : OK (v2, confidence 2/13) ->All tracks accurately ripped.
All Tracks Filename : /Volumes/FILE3/Audio/SWF/1979. Ivory - Sad Cypress (MALS, MALS039 FGBG 4089 AR, Russia)/Sad Cypress.flac Album gain : -0.83 dB Peak : 0.998047 CRC32 hash (test run) : 6EE5B169 CRC32 hash : 6EE5B169 CRC32 hash (skip zero) : 16AD31BC Statistics Read error : 0 Jitter error (maybe fixed) : 0 Retry sector count : 0 Damaged sector count : 0
Track 01 Pre-gap length : 00:02:32
Track gain : -2.23 dB Peak : 0.895538 CRC32 hash (test run) : 0A04452D CRC32 hash : 0A04452D CRC32 hash (skip zero) : E224161D AccurateRip v1 signature : 1FD8F44E AccurateRip v2 signature : 97CAAC30 ->Accurately ripped (v2, confidence 2/13) Statistics Read error : 0 Jitter error (maybe fixed) : 0 Retry sector count : 0 Damaged sector count : 0
Track 02
Track gain : -1.47 dB Peak : 0.912018 CRC32 hash (test run) : BA1DCCA2 CRC32 hash : BA1DCCA2 CRC32 hash (skip zero) : 8AAB7BBB AccurateRip v1 signature : 1C19CC17 AccurateRip v2 signature : 42A150FD ->Accurately ripped (v2, confidence 2/13) Statistics Read error : 0 Jitter error (maybe fixed) : 0 Retry sector count : 0 Damaged sector count : 0
Track 03
Track gain : -1.66 dB Peak : 0.960175 CRC32 hash (test run) : 42B58106 CRC32 hash : 42B58106 CRC32 hash (skip zero) : 2C079210 AccurateRip v1 signature : 83DCAF93 AccurateRip v2 signature : FAFAF0BC ->Accurately ripped (v2, confidence 2/13) Statistics Read error : 0 Jitter error (maybe fixed) : 0 Retry sector count : 0 Damaged sector count : 0
Track 04
Track gain : -2.25 dB Peak : 0.893707 CRC32 hash (test run) : A03E0D03 CRC32 hash : A03E0D03 CRC32 hash (skip zero) : 088A51F9 AccurateRip v1 signature : D0632343 AccurateRip v2 signature : C0FD08B1 ->Accurately ripped (v2, confidence 2/13) Statistics Read error : 0 Jitter error (maybe fixed) : 0 Retry sector count : 0 Damaged sector count : 0
Track 05
Track gain : -1.23 dB Peak : 0.998047 CRC32 hash (test run) : 84B1E4CA CRC32 hash : 84B1E4CA CRC32 hash (skip zero) : 8CEEC201 AccurateRip v1 signature : 4205B6F4 AccurateRip v2 signature : 41B4F6C5 ->Accurately ripped (v2, confidence 2/13) Statistics Read error : 0 Jitter error (maybe fixed) : 0 Retry sector count : 0 Damaged sector count : 0
Track 06
Track gain : -0.44 dB Peak : 0.957733 CRC32 hash (test run) : A4764788 CRC32 hash : A4764788 CRC32 hash (skip zero) : 611383A7 AccurateRip v1 signature : E298ED0C AccurateRip v2 signature : 51293725 ->Accurately ripped (v2, confidence 2/13) Statistics Read error : 0 Jitter error (maybe fixed) : 0 Retry sector count : 0 Damaged sector count : 0
Track 07
Track gain : 1.15 dB Peak : 0.784821 CRC32 hash (test run) : A056672F CRC32 hash : A056672F CRC32 hash (skip zero) : 8423AB10 AccurateRip v1 signature : 4C82EB0E AccurateRip v2 signature : E9998C29 ->Accurately ripped (v2, confidence 2/13) Statistics Read error : 0 Jitter error (maybe fixed) : 0 Retry sector count : 0 Damaged sector count : 0
Track 08
Track gain : -1.82 dB Peak : 0.842163 CRC32 hash (test run) : 91150784 CRC32 hash : 91150784 CRC32 hash (skip zero) : BE440DCD AccurateRip v1 signature : 9D4DAAC6 AccurateRip v2 signature : AE558DBB ->Accurately ripped (v2, confidence 2/13) Statistics Read error : 0 Jitter error (maybe fixed) : 0 Retry sector count : 0 Damaged sector count : 0
Track 09
Track gain : 1.98 dB Peak : 0.694244 CRC32 hash (test run) : 14B3DC44 CRC32 hash : 14B3DC44 CRC32 hash (skip zero) : F5B1FB64 AccurateRip v1 signature : CD5A34A8 AccurateRip v2 signature : DF2E2F0B ->Accurately ripped (v2, confidence 2/13) Statistics Read error : 0 Jitter error (maybe fixed) : 0 Retry sector count : 0 Damaged sector count : 0
No errors occurred
End of status report
-----BEGIN XLD SIGNATURE-----IN59X94Dm.mR8Vy1iAbLI60fF6Zksw3RPLQlPZu85I.sJEpZyFIsZ38W03lbF7rsd9D8PdDaYcSq4waG1_zJ8H01r193hCmCYcY5Q7O-----END XLD SIGNATURE-----
-

.cue

TITLE "Sad Cypress"PERFORMER "Ivory"REM GENRE "Progressive Rock"REM DATE "1980"REM DISCID 89108609REM REPLAYGAIN_ALBUM_GAIN -0.83 dBREM REPLAYGAIN_ALBUM_PEAK 0.998047FILE "Sad Cypress.flac" WAVE  TRACK 01 AUDIO    TITLE "At This Very Moment"    REM REPLAYGAIN_TRACK_GAIN -2.23 dB    REM REPLAYGAIN_TRACK_PEAK 0.895538    INDEX 00 00:00:00    INDEX 01 00:00:32  TRACK 02 AUDIO    TITLE "In Hora Ultima"    REM REPLAYGAIN_TRACK_GAIN -1.47 dB    REM REPLAYGAIN_TRACK_PEAK 0.912018    INDEX 01 04:03:12  TRACK 03 AUDIO    TITLE "Sad Cypress"    REM REPLAYGAIN_TRACK_GAIN -1.66 dB    REM REPLAYGAIN_TRACK_PEAK 0.960175    INDEX 01 11:21:50  TRACK 04 AUDIO    TITLE "Time Traveller"    REM REPLAYGAIN_TRACK_GAIN -2.25 dB    REM REPLAYGAIN_TRACK_PEAK 0.893707    INDEX 01 20:07:67  TRACK 05 AUDIO    TITLE "My Brother"    REM REPLAYGAIN_TRACK_GAIN -1.23 dB    REM REPLAYGAIN_TRACK_PEAK 0.998047    INDEX 01 24:27:47  TRACK 06 AUDIO    TITLE "The Great Tower"    REM REPLAYGAIN_TRACK_GAIN -0.44 dB    REM REPLAYGAIN_TRACK_PEAK 0.957733    INDEX 01 38:25:35  TRACK 07 AUDIO    TITLE "Incantation"    REM REPLAYGAIN_TRACK_GAIN 1.15 dB    REM REPLAYGAIN_TRACK_PEAK 0.784821    INDEX 01 48:16:50  TRACK 08 AUDIO    TITLE "Construction No 2"    REM REPLAYGAIN_TRACK_GAIN -1.82 dB    REM REPLAYGAIN_TRACK_PEAK 0.842163    INDEX 01 53:05:05  TRACK 09 AUDIO    TITLE "Barbara"    REM REPLAYGAIN_TRACK_GAIN 1.98 dB    REM REPLAYGAIN_TRACK_PEAK 0.694244    INDEX 01 55:45:50
-

matrix

-

состав

Ulrich Sommerlatte - Keyboards, piano, organ
Thomas Sommerlate - Keyboards
Christian Mayer - Vocal, Guitars
Charly Stechl - Bass, Flute
Goddie Daum - Guitars
Fredrik Rittmueller - Drums
--

еще несколько слов

Немецкая группа,в которой 2 клавишника - отец (Ulrich) и сын (Thomas), причем отцу на момент записи альбома
было 65 лет(!). Ulrich Sommerlatte работал в 60-е годы классическим пианистом, в начале 70-х увлекся арт - роком
и в 1975 вместе с сыном основал Ivory. Их единственный альбом вышел в 1979 году. Стиль их музыки охарактеризовать двумя словами не удастся, местами слышится что-то от Camel, иногда - на мой субъективный взгляд - Fruupp, в целом же - старый добрый арт-рок.
З.Ы.Последние 4 трека - бонусы, записанные усеченным составом в 1983 году для очередного альбома, в то время
так и не вышедшего.
--
[protorrent.xyz]_t-492707
Torrent: Registered ·  [ 2020-05-03 22:15 ] ·  d3781a816518153f8f9d30455d82d86195fce4d0

14 KB

Status: checked
Completed: 0 times
Size: 635 MB
Rating: 
(Votes: 0)
Say thanks: 0  Thanks
 
Похожие темы
[Profile] [PM]
Display posts from previous:    
Reply to topic

The time now is: Today 18:59

All times are GMT + 7 Hours



You cannot post new topics in this forum
You cannot reply to topics in this forum
You cannot edit your posts in this forum
You cannot delete your posts in this forum
You cannot vote in polls in this forum
You cannot attach files in this forum
You can download files in this forum