Register · 
Username: Password:
 ·  Forgot password?

Полицейский Из Беверли Хиллз 3 / Beverly Hills Cop III (Джон Лэндис / John Landis) [1994, США, комедия, боевик, триллер, криминал, VHSRip] [Promo Copy | FullScreen] AVO (Антон Пронин)

Reply to topic
DL-List and Torrent activity [Update пиров]
Size:  1.46 GB   |    Registered:  1 month 2 days   |    Completed:  0 times

Seeder not seen: Never

 
   
 
 
 
Author Message

FragoMan ®

Gender:

Longevity: 6 years 8 months

Posts: 27132

Post 03-May-2020 22:15

[Quote]

Полицейский Из Беверли Хиллз 3 / Beverly Hills Cop III
[Promo Copy | FullScreen]
«He's back!»
Страна: США
Жанр: комедия, боевик, триллер, криминал
Год выпуска: 1994
Продолжительность: 01:44:20
Перевод: Авторский (одноголосый закадровый) Антон Пронин
Субтитры: нет
Режиссер: Джон Лэндис / John Landis
В ролях: Эдди Мёрфи, Джадж Райнхолд, Гектор Элизондо, Тереза Рэндл, Джон Тенни, Джои Траволта, Юджин Колльер, Джимми Ортега, Усон Илам, Рэй Лайкинс
Описание: После перерыва в семь лет полицейский из Детройта Аксель Фоули снова вынужден побывать у своих друзей в Беверли-Хиллз. Его приводят туда поиски убийцы любимого шефа.
В результате парк аттракционов «Мир чудес», где бандиты в жутком подполье печатали фальшивые доллары, стал ареной боевых действий, а наш герой отомстил убийцам, прославился и познакомился с очаровательной работницей парка.
Доп. информация: Оцифровка VHS (личный архив) и получение VHSRip alenavova
Эксклюзив для . При размещении данного релиза на других сайтах ссылка на автора alenavova обязательна.

Релиз
Сэмпл: http://yadi.sk/i/AkxItckAYgVOtw
Качество видео: VHSRip
Формат видео: AVI
Видео: 704x528 (1.33:1), 25 fps, XviD build 73 ~1805 kbps avg, 0.19 bit/pixel
Аудио: 48 kHz, AC3 Dolby Digital, 2/0 (L,R) ch, ~192 kbps

MediaInfo

Полицейский из Беверли Хилз-3 Beverly Hills Cop III [by alenavova].aviFormat                      : AVIFormat/Info                 : Audio Video InterleaveFile size                   : 1.46 GiBDuration                    : 1 h 44 minOverall bit rate            : 2 008 kb/sMovie name                  : Полицейский из Беверли Хилз-3 Beverly Hills Cop III [by alenavova]Director                    : by alenavovaWriting application         : VirtualDubMod 1.5.10.3 | www.virtualdub-fr.org || (build 2550/release)Copyright                   : Edich2Comment                     :
VideoID : 0Format : MPEG-4 VisualFormat profile : Advanced Simple@L5Format settings : BVOP1 / Custom MatrixFormat settings, BVOP : 1Format settings, QPel : NoFormat settings, GMC : No warppointsFormat settings, Matrix : CustomCodec ID : XVIDCodec ID/Hint : XviDDuration : 1 h 44 minBit rate : 1 806 kb/sWidth : 704 pixelsHeight : 528 pixelsDisplay aspect ratio : 4:3Frame rate : 25.000 FPSColor space : YUVChroma subsampling : 4:2:0Bit depth : 8 bitsScan type : ProgressiveCompression mode : LossyBits/(Pixel*Frame) : 0.194Stream size : 1.32 GiB (90%)Writing library : XviD 73
AudioID : 1Format : AC-3Format/Info : Audio Coding 3Codec ID : 2000Duration : 1 h 44 minBit rate mode : ConstantBit rate : 192 kb/sChannel(s) : 2 channelsChannel positions : Front: L RSampling rate : 48.0 kHzFrame rate : 31.250 FPS (1536 SPF)Bit depth : 16 bitsCompression mode : LossyStream size : 143 MiB (10%)Alignment : Split accross interleavesInterleave, duration : 40 ms (1.00 video frame)Interleave, preload duratio : 500 msService kind : Complete Main

Скриншоты


[protorrent.xyz]_t-5890474
Torrent: Registered ·  [ 2020-05-03 22:15 ] ·  80633fb5c5bc1b74593949f7027f18305976e1ad

15 KB

Status: checked
Completed: 0 times
Size: 1.46 GB
Rating: 
(Votes: 0)
Say thanks: 0  Thanks
 
Похожие темы
[Profile] [PM]
Display posts from previous:    
Reply to topic

The time now is: Today 17:14

All times are GMT + 7 Hours



You cannot post new topics in this forum
You cannot reply to topics in this forum
You cannot edit your posts in this forum
You cannot delete your posts in this forum
You cannot vote in polls in this forum
You cannot attach files in this forum
You can download files in this forum