Register · 
Username: Password:
 ·  Forgot password?

Как преуспеть в делах, когда ты дурак и плакса / Comment réussir... quand on est con et pleurnichard (Мишель Одиар / Michel Audiard) [1974, Франция, Комедия, HDTVRip-AVC] AVO (Роман Янкелевич) + Original Fra

Reply to topic
DL-List and Torrent activity [Update пиров]
Size:  1.47 GB   |    Registered:  1 month 3 days   |    Completed:  0 times

Seeder not seen: Never

 
   
 
 
 
Author Message

god56 ®

Gender:

Longevity: 6 years 8 months

Posts: 28203

Post 03-May-2020 22:15

[Quote]

Как преуспеть в делах, когда ты дурак и плакса / Comment réussir... quand on est con et pleurnichard
Жанр: Комедия
Страна: Франция
Студия: Films du Jeudi, Les, Gaumont International
Год выпуска: 1974
Продолжительность: 01:21:30
Перевод: Авторский (одноголосый закадровый) - Роман Янкелевич
Субтитры: нет
Оригинальная аудиодорожка: французский
Режиссер: Мишель Одиар / Michel Audiard
В ролях:
Жан Карме / Jean Carmet ... Antoine Robineau
Стефан Одран / Stéphane Audran ... Cécile Malempin
Джейн Биркин / Jane Birkin ... Jane
Жан-Пьер Марьель / Jean-Pierre Marielle ... Gérard Malempin
Жан Рошфор / Jean Rochefort ... Foisnard
Эвелин Бюиль / Evelyne Buyle ... Marie-Josée
Федор Аткин / Féodor Atkine ... Le mime du cabaret
Лоранс Бади / Laurence Badie ... Une employée de l'hôtel
Пол Бисцилиа / Paul Bisciglia ... Le chasseur PLM
Жак Канселье / Jacques Canselier ... Le surveillant TV PLM
Эрманно Казанова / Ermanno Casanova ...
Робер Дальбан / Robert Dalban ... Léonce, le patron du bistrot
Жаклин Дуайен / Jacqueline Doyen ... Mme Léonce
Жан-Клод Дрейфус / Jean-Claude Dreyfus ... Le transformiste du cabaret
Даниэль Прево Daniel Prévost ... Le taulier du cabaret
Мишель Одиар / Michel Audiard ... Un infirmier
Описание: Уже совсем немолодой Антуан Рабино (Жан Карме) живет с мамой-алкоголичкой и занимается в своей квартирке производством отвратительного вермута, который покупатели называют ядом. Он влюблён в мадемуазель Миле, но та регулярно пытается покончить жизнь самоубийством из-за неверности её любовника, директора отеля, женатого на богатой женщине, которой принадлежит и отель, и шикарное поместье. Антуан регулярно пытается спасти жизнь неудачливой самоубийце и после взрывов газа часто оказывается на больничной койке. Директор отеля влюбляется в стриптизёршу и уезжает с ней. Антуан занимает место директора в постели и на работе, где всё та же мадемуазель Миле, работающая в отеле, становится его любовницей…
Дополнительная информация:
Релиз:
Исходник найден в сети.
Автор рипа: pmv
Большое спасибо за:
- аудиодорожку с русской озвучкой (http:///forum/viewtopic.php?t=5744732) - edich2, Mixa_12345_mixa
- синхронизацию звуковой аудиодорожки - pmv
IMDb = 5,7/10 (358) - http://www.imdb.com/title/tt0185997/
Кинопоиск = 5.761 (88) - http://www.kinopoisk.ru/film/37434/
ВНИМАНИЕ!!! РИП ФОРМАТА mkv (кодек H.264) ВОСПРОИЗВОДИТСЯ НЕ НА ВСЕХ БЫТОВЫХ ВИДЕОПЛЕЕРАХ!!!
ПРОСЬБА к СКАЧАВШИМ. НЕ УХОДИТЕ С РАЗДАЧИ, ПОМОГИТЕ ДРУГИМ СКАЧАТЬ!!!
Качество видео: HDTVRip-AVC
Формат видео: MKV
Видео: AVC (H264), 1082x648 (1.66:1), 25 fps, 2200 kbps, 0.126 Bits/Pixel
Аудио #1: AC3, 48 kHz, stereo (2 ch), 192 kbps - русский
Аудио #2: AC3, 48 kHz, stereo (2 ch), 192 kbps – французский

MediaInfo

GeneralUnique ID                      : 85056907598512799675774559943118773814 (0x3FFD5D51F9B4177E040AF366FCE35E36)Complete name                  : D:\torrents\Comment reussir quand on est con et pleurnichard (1974, rus_VO+fre).mkvFormat                         : MatroskaFormat version                 : Version 4 / Version 2File size                      : 1.47 GiBDuration                       : 1 h 21 minOverall bit rate               : 2 586 kb/sEncoded date                   : UTC 2020-04-29 01:43:47Writing application            : mkvmerge v45.0.0 ('Heaven in Pennies') 64-bitWriting library                : libebml v1.3.10 + libmatroska v1.5.2
VideoID : 1Format : AVCFormat/Info : Advanced Video CodecFormat profile : High@L4.1Format settings, CABAC : YesFormat settings, RefFrames : 8 framesCodec ID : V_MPEG4/ISO/AVCDuration : 1 h 21 minBit rate : 2 200 kb/sWidth : 1 082 pixelsHeight : 648 pixelsDisplay aspect ratio : 5:3Frame rate mode : ConstantFrame rate : 25.000 FPSColor space : YUVChroma subsampling : 4:2:0Bit depth : 8 bitsScan type : ProgressiveBits/(Pixel*Frame) : 0.126Stream size : 1.25 GiB (85%)Writing library : x264 core 157 r2958 57baac4Encoding settings : cabac=1 / ref=8 / deblock=1:-1:-1 / analyse=0x3:0x133 / me=umh / subme=9 / psy=1 / psy_rd=1.00:0.00 / mixed_ref=1 / me_range=24 / chroma_me=1 / trellis=2 / 8x8dct=1 / cqm=0 / deadzone=21,11 / fast_pskip=1 / chroma_qp_offset=-2 / threads=20 / lookahead_threads=3 / sliced_threads=0 / nr=0 / decimate=1 / interlaced=0 / bluray_compat=0 / constrained_intra=0 / bframes=7 / b_pyramid=2 / b_adapt=2 / b_bias=0 / direct=3 / weightb=1 / open_gop=0 / weightp=2 / keyint=10 / keyint_min=6 / scenecut=40 / intra_refresh=0 / rc_lookahead=10 / rc=2pass / mbtree=1 / bitrate=2200 / ratetol=1.0 / qcomp=0.60 / qpmin=0 / qpmax=69 / qpstep=4 / cplxblur=20.0 / qblur=0.5 / ip_ratio=1.40 / aq=1:1.00Language : FrenchDefault : YesForced : No
Audio #1ID : 2Format : AC-3Format/Info : Audio Coding 3Format settings, Endianness : BigCodec ID : A_AC3Duration : 1 h 21 minBit rate mode : ConstantBit rate : 192 kb/sChannel(s) : 2 channelsChannel positions : Front: L RSampling rate : 48.0 kHzFrame rate : 31.250 FPS (1536 SPF)Bit depth : 16 bitsCompression mode : LossyStream size : 112 MiB (7%)Language : RussianService kind : Complete MainDefault : YesForced : No
Audio #2ID : 3Format : AC-3Format/Info : Audio Coding 3Format settings, Endianness : BigCodec ID : A_AC3Duration : 1 h 21 minBit rate mode : ConstantBit rate : 192 kb/sChannel(s) : 2 channelsChannel positions : Front: L RSampling rate : 48.0 kHzFrame rate : 31.250 FPS (1536 SPF)Bit depth : 16 bitsCompression mode : LossyStream size : 112 MiB (7%)Language : FrenchService kind : Complete MainDefault : NoForced : No

Скриншот c названием фильма

МОИ РАЗДАЧИ НА РУТРЕКЕРЕ: [url=tracker.php?rid=27390064]http:///forum/tracker.php?rid=27390064[/url]
[protorrent.xyz]_t-5890489
Torrent: Registered ·  [ 2020-05-03 22:15 ] ·  a7cd13ca5d7cef5e482b8b25593e8be2b5c9a92b

15 KB

Status: checked
Completed: 0 times
Size: 1.47 GB
Rating: 
(Votes: 0)
Say thanks: 0  Thanks
 
Похожие темы
[Profile] [PM]
Display posts from previous:    
Reply to topic

The time now is: Today 16:18

All times are GMT + 7 Hours



You cannot post new topics in this forum
You cannot reply to topics in this forum
You cannot edit your posts in this forum
You cannot delete your posts in this forum
You cannot vote in polls in this forum
You cannot attach files in this forum
You can download files in this forum