Register · 
Username: Password:
 ·  Forgot password?

(Pop Rock, Soul, Synth-Pop) [CD] Daryl Hall & John Oates - Our Kind Of Soul - 2004, FLAC (tracks+.cue), lossless

Reply to topic
DL-List and Torrent activity [Update пиров]
Size:  558 MB   |    Registered:  4 months 14 days   |    Completed:  0 times

Seeder not seen: Never

 
   
 
 
 
Author Message

FragoMan ®

Gender:

Longevity: 6 years 11 months

Posts: 28780

Post 03-May-2020 21:05

[Quote]

Daryl Hall & John Oates / Our Kind Of Soul
Жанр: Pop Rock, Soul, Synth-pop
Носитель: CD
Страна-производитель диска (релиза): US
Год издания: 2004
Издатель (лейбл): U-Watch Records
Номер по каталогу: 480103-2
Аудиокодек: FLAC (*.flac)
Тип рипа: tracks+.cue
Продолжительность: 01:09:22
Источник: israbox
Наличие сканов в содержимом раздачи: да
Треклист:
1 Let Love Take Control
2 Standing In The Shadows Of Love
3 I'll Be Around
4 Used To Be My Girl
5 Soul Violins
6 I Can Dream About You
7 Don't You Turn Your Back On Me
8 Fading Away
9 Neither One Of Us
10 After The Dance
11 Rock Steady
12 Love TKO
13 What You See Is What You Get
14 Can't Get Enough Of Your Love
15 You Are Everything
16 I'm Still In Love With You
17 Ooh Child

Лог создания рипа

Exact Audio Copy V1.3 from 2. September 2016
EAC extraction logfile from 15. November 2017, 13:52
Daryl Hall & John Oates / Our Kind Of Soul
Used drive : TSSTcorpCDDVDW SH-S223L Adapter: 1 ID: 1
Read mode : SecureUtilize accurate stream : YesDefeat audio cache : YesMake use of C2 pointers : No
Read offset correction : 6Overread into Lead-In and Lead-Out : NoFill up missing offset samples with silence : YesDelete leading and trailing silent blocks : NoNull samples used in CRC calculations : YesUsed interface : Native Win32 interface for Win NT & 2000Gap handling : Appended to previous track
Used output format : User Defined EncoderSelected bitrate : 1024 kBit/sQuality : HighAdd ID3 tag : NoCommand line compressor : C:\Program Files\flac-1.3.1-win\win32\flac.exeAdditional command line options : -8 -e -p -V -T "ARTIST=%artist%" -T "TITLE=%title%" -T "ALBUM=%albumtitle%" -T "DATE=%year%" -T "TRACKNUMBER=%tracknr%" -T "GENRE=%genre%" -T "PERFORMER=%albuminterpret%" -T "COMPOSER=%composer%" %haslyrics%--tag-from-file=LYRICS="%lyricsfile%"%haslyrics% -T "ALBUMARTIST=%albumartist%" -T "DISCNUMBER=%cdnumber%" -T "TOTALDISCS=%totalcds%" -T "TOTALTRACKS=%numtracks%" -T "COMMENT=%comment%" %source% -o %dest%
TOC of the extracted CD
Track | Start | Length | Start sector | End sector --------------------------------------------------------- 1 | 0:00.00 | 3:28.70 | 0 | 15669 2 | 3:28.70 | 3:59.05 | 15670 | 33599 3 | 7:28.00 | 4:02.12 | 33600 | 51761 4 | 11:30.12 | 4:00.33 | 51762 | 69794 5 | 15:30.45 | 4:05.22 | 69795 | 88191 6 | 19:35.67 | 3:16.30 | 88192 | 102921 7 | 22:52.22 | 4:50.03 | 102922 | 124674 8 | 27:42.25 | 3:39.67 | 124675 | 141166 9 | 31:22.17 | 4:19.68 | 141167 | 160659 10 | 35:42.10 | 4:11.42 | 160660 | 179526 11 | 39:53.52 | 4:04.43 | 179527 | 197869 12 | 43:58.20 | 5:20.65 | 197870 | 221934 13 | 49:19.10 | 4:30.55 | 221935 | 242239 14 | 53:49.65 | 3:48.15 | 242240 | 259354 15 | 57:38.05 | 3:54.40 | 259355 | 276944 16 | 61:32.45 | 4:07.35 | 276945 | 295504 17 | 65:40.05 | 3:50.60 | 295505 | 312814
Track 1
Filename J:\(ripper)\Daryl Hall & John Oates - Our Kind Of Soul [2004] [FLAC]\01 - Let Love Take Control.wav
Pre-gap length 0:00:02.00
Peak level 98.8 % Extraction speed 2.6 X Track quality 100.0 % Test CRC 8B90557D Copy CRC 8B90557D Accurately ripped (confidence 42) [48A686E5] (AR v2) Copy OK
Track 2
Filename J:\(ripper)\Daryl Hall & John Oates - Our Kind Of Soul [2004] [FLAC]\02 - Standing In The Shadows Of Love.wav
Peak level 98.8 % Extraction speed 2.9 X Track quality 100.0 % Test CRC 792D860B Copy CRC 792D860B Accurately ripped (confidence 44) [65C2E153] (AR v2) Copy OK
Track 3
Filename J:\(ripper)\Daryl Hall & John Oates - Our Kind Of Soul [2004] [FLAC]\03 - I'll Be Around.wav
Pre-gap length 0:00:00.40
Peak level 98.8 % Extraction speed 3.2 X Track quality 100.0 % Test CRC 37ADE81D Copy CRC 37ADE81D Accurately ripped (confidence 45) [87222DFD] (AR v2) Copy OK
Track 4
Filename J:\(ripper)\Daryl Hall & John Oates - Our Kind Of Soul [2004] [FLAC]\04 - Used To Be My Girl.wav
Peak level 98.8 % Extraction speed 3.4 X Track quality 100.0 % Test CRC 8D758B10 Copy CRC 8D758B10 Accurately ripped (confidence 45) [BB188514] (AR v2) Copy OK
Track 5
Filename J:\(ripper)\Daryl Hall & John Oates - Our Kind Of Soul [2004] [FLAC]\05 - Soul Violins.wav
Peak level 98.8 % Extraction speed 3.6 X Track quality 100.0 % Test CRC 3DEDDE04 Copy CRC 3DEDDE04 Accurately ripped (confidence 45) [EFD85CB2] (AR v2) Copy OK
Track 6
Filename J:\(ripper)\Daryl Hall & John Oates - Our Kind Of Soul [2004] [FLAC]\06 - I Can Dream About You.wav
Pre-gap length 0:00:00.13
Peak level 98.8 % Extraction speed 3.7 X Track quality 100.0 % Test CRC F251B7CC Copy CRC F251B7CC Accurately ripped (confidence 43) [0A3C0640] (AR v2) Copy OK
Track 7
Filename J:\(ripper)\Daryl Hall & John Oates - Our Kind Of Soul [2004] [FLAC]\07 - Don't Turn Your Back On Me.wav
Pre-gap length 0:00:01.16
Peak level 98.8 % Extraction speed 4.1 X Track quality 100.0 % Test CRC 715D5E20 Copy CRC 715D5E20 Accurately ripped (confidence 44) [B160D366] (AR v2) Copy OK
Track 8
Filename J:\(ripper)\Daryl Hall & John Oates - Our Kind Of Soul [2004] [FLAC]\08 - Fading Away.wav
Peak level 98.8 % Extraction speed 4.1 X Track quality 100.0 % Test CRC 439C21AE Copy CRC 439C21AE Accurately ripped (confidence 44) [2EB3B75D] (AR v2) Copy OK
Track 9
Filename J:\(ripper)\Daryl Hall & John Oates - Our Kind Of Soul [2004] [FLAC]\09 - Neither One Of Us.wav
Peak level 100.0 % Extraction speed 3.4 X Track quality 99.9 % Test CRC 0B7D3E9A Copy CRC 0B7D3E9A Accurately ripped (confidence 45) [2B5587F3] (AR v2) Copy OK
Track 10
Filename J:\(ripper)\Daryl Hall & John Oates - Our Kind Of Soul [2004] [FLAC]\10 - After The Dance.wav
Pre-gap length 0:00:01.04
Peak level 98.8 % Extraction speed 4.6 X Track quality 100.0 % Test CRC 561ED129 Copy CRC 561ED129 Accurately ripped (confidence 43) [3D0AD197] (AR v2) Copy OK
Track 11
Filename J:\(ripper)\Daryl Hall & John Oates - Our Kind Of Soul [2004] [FLAC]\11 - Rock Steady.wav
Peak level 98.8 % Extraction speed 4.7 X Track quality 100.0 % Test CRC 8ECCA89E Copy CRC 8ECCA89E Accurately ripped (confidence 44) [207C5B16] (AR v2) Copy OK
Track 12
Filename J:\(ripper)\Daryl Hall & John Oates - Our Kind Of Soul [2004] [FLAC]\12 - Love TKO.wav
Pre-gap length 0:00:00.64
Peak level 98.8 % Extraction speed 5.0 X Track quality 100.0 % Test CRC 860C1289 Copy CRC 860C1289 Accurately ripped (confidence 44) [F105C24F] (AR v2) Copy OK
Track 13
Filename J:\(ripper)\Daryl Hall & John Oates - Our Kind Of Soul [2004] [FLAC]\13 - What You See Is What You Get.wav
Peak level 98.8 % Extraction speed 5.1 X Track quality 100.0 % Test CRC C91D1B19 Copy CRC C91D1B19 Accurately ripped (confidence 45) [DC91550A] (AR v2) Copy OK
Track 14
Filename J:\(ripper)\Daryl Hall & John Oates - Our Kind Of Soul [2004] [FLAC]\14 - Can't Get Enough Of Your Love.wav
Peak level 98.8 % Extraction speed 5.1 X Track quality 100.0 % Test CRC 3D71811A Copy CRC 3D71811A Accurately ripped (confidence 45) [F6F49E2F] (AR v2) Copy OK
Track 15
Filename J:\(ripper)\Daryl Hall & John Oates - Our Kind Of Soul [2004] [FLAC]\15 - You Are Everything.wav
Pre-gap length 0:00:00.04
Peak level 98.8 % Extraction speed 5.3 X Track quality 100.0 % Test CRC 1557F3CC Copy CRC 1557F3CC Accurately ripped (confidence 45) [228B9407] (AR v2) Copy OK
Track 16
Filename J:\(ripper)\Daryl Hall & John Oates - Our Kind Of Soul [2004] [FLAC]\16 - I'm Still In Love With You.wav
Peak level 98.8 % Extraction speed 5.4 X Track quality 100.0 % Test CRC 8E028AE6 Copy CRC 8E028AE6 Accurately ripped (confidence 45) [E5CEC066] (AR v2) Copy OK
Track 17
Filename J:\(ripper)\Daryl Hall & John Oates - Our Kind Of Soul [2004] [FLAC]\17 - Ooh Child.wav
Peak level 98.8 % Extraction speed 5.5 X Track quality 100.0 % Test CRC D44F249C Copy CRC D44F249C Accurately ripped (confidence 43) [191E604E] (AR v2) Copy OK
All tracks accurately ripped
No errors occurred
End of status report
---- CUETools DB Plugin V2.1.6
[CTDB TOCID: edZVqOTgrP8G_Ma_1K.xRSUdJ6s-] foundSubmit result: edZVqOTgrP8G_Ma_1K.xRSUdJ6s- has been confirmedTrack | CTDB Status 1 | (36/41) Accurately ripped 2 | (38/41) Accurately ripped 3 | (40/41) Accurately ripped 4 | (38/41) Accurately ripped 5 | (38/41) Accurately ripped 6 | (39/41) Accurately ripped 7 | (39/41) Accurately ripped 8 | (39/41) Accurately ripped 9 | (39/41) Accurately ripped 10 | (39/41) Accurately ripped 11 | (39/41) Accurately ripped 12 | (39/41) Accurately ripped 13 | (39/41) Accurately ripped 14 | (38/41) Accurately ripped 15 | (38/41) Accurately ripped 16 | (39/41) Accurately ripped 17 | (38/41) Accurately ripped
==== Log checksum D584C6B9BB4B136E1051518C3F1B2135DD74BA9F26429790A09DA120534C716A ====

Содержание индексной карты (.CUE)

REM GENRE PopREM DATE 2004REM DISCID EC104A11REM COMMENT "ExactAudioCopy v1.3"PERFORMER "Daryl Hall & John Oates"TITLE "Our Kind Of Soul"REM COMPOSER ""FILE "01 - Let Love Take Control.wav" WAVE  TRACK 01 AUDIO    TITLE "Let Love Take Control"    PERFORMER "Daryl Hall & John Oates"    REM COMPOSER ""    INDEX 01 00:00:00FILE "02 - Standing In The Shadows Of Love.wav" WAVE  TRACK 02 AUDIO    TITLE "Standing In The Shadows Of Love"    PERFORMER "Daryl Hall & John Oates"    REM COMPOSER ""    INDEX 01 00:00:00  TRACK 03 AUDIO    TITLE "I'll Be Around"    PERFORMER "Daryl Hall & John Oates"    REM COMPOSER ""    INDEX 00 03:58:50FILE "03 - I'll Be Around.wav" WAVE    INDEX 01 00:00:00FILE "04 - Used To Be My Girl.wav" WAVE  TRACK 04 AUDIO    TITLE "Used To Be My Girl"    PERFORMER "Daryl Hall & John Oates"    REM COMPOSER ""    INDEX 01 00:00:00FILE "05 - Soul Violins.wav" WAVE  TRACK 05 AUDIO    TITLE "Soul Violins"    PERFORMER "Daryl Hall & John Oates"    REM COMPOSER ""    INDEX 01 00:00:00  TRACK 06 AUDIO    TITLE "I Can Dream About You"    PERFORMER "Daryl Hall & John Oates"    REM COMPOSER ""    INDEX 00 04:05:12FILE "06 - I Can Dream About You.wav" WAVE    INDEX 01 00:00:00  TRACK 07 AUDIO    TITLE "Don't Turn Your Back On Me"    PERFORMER "Daryl Hall & John Oates"    REM COMPOSER ""    INDEX 00 03:15:18FILE "07 - Don't Turn Your Back On Me.wav" WAVE    INDEX 01 00:00:00FILE "08 - Fading Away.wav" WAVE  TRACK 08 AUDIO    TITLE "Fading Away"    PERFORMER "Daryl Hall & John Oates"    REM COMPOSER ""    INDEX 01 00:00:00FILE "09 - Neither One Of Us.wav" WAVE  TRACK 09 AUDIO    TITLE "Neither One Of Us"    PERFORMER "Daryl Hall & John Oates"    REM COMPOSER ""    INDEX 01 00:00:00  TRACK 10 AUDIO    TITLE "After The Dance"    PERFORMER "Daryl Hall & John Oates"    REM COMPOSER ""    INDEX 00 04:18:65FILE "10 - After The Dance.wav" WAVE    INDEX 01 00:00:00FILE "11 - Rock Steady.wav" WAVE  TRACK 11 AUDIO    TITLE "Rock Steady"    PERFORMER "Daryl Hall & John Oates"    REM COMPOSER ""    INDEX 01 00:00:00  TRACK 12 AUDIO    TITLE "Love TKO"    PERFORMER "Daryl Hall & John Oates"    REM COMPOSER ""    INDEX 00 04:03:70FILE "12 - Love TKO.wav" WAVE    INDEX 01 00:00:00FILE "13 - What You See Is What You Get.wav" WAVE  TRACK 13 AUDIO    TITLE "What You See Is What You Get"    PERFORMER "Daryl Hall & John Oates"    REM COMPOSER ""    INDEX 01 00:00:00FILE "14 - Can't Get Enough Of Your Love.wav" WAVE  TRACK 14 AUDIO    TITLE "Can't Get Enough Of Your Love"    PERFORMER "Daryl Hall & John Oates"    REM COMPOSER ""    INDEX 01 00:00:00  TRACK 15 AUDIO    TITLE "You Are Everything"    PERFORMER "Daryl Hall & John Oates"    REM COMPOSER ""    INDEX 00 03:48:12FILE "15 - You Are Everything.wav" WAVE    INDEX 01 00:00:00FILE "16 - I'm Still In Love With You.wav" WAVE  TRACK 16 AUDIO    TITLE "I'm Still In Love With You"    PERFORMER "Daryl Hall & John Oates"    REM COMPOSER ""    INDEX 01 00:00:00FILE "17 - Ooh Child.wav" WAVE  TRACK 17 AUDIO    TITLE "Ooh Child"    PERFORMER "Daryl Hall & John Oates"    REM COMPOSER ""    INDEX 01 00:00:00

Лог DR

foobar2000 1.5.3 / Dynamic Range Meter 1.1.1log date: 2020-05-02 11:10:31
--------------------------------------------------------------------------------Analyzed: Daryl Hall & John Oates / Our Kind Of Soul--------------------------------------------------------------------------------
DR Peak RMS Duration Track--------------------------------------------------------------------------------DR5 -0.10 dB -6.44 dB 3:29 01-Let Love Take ControlDR6 -0.10 dB -7.56 dB 3:59 02-Standing In The Shadows Of LoveDR5 -0.10 dB -7.28 dB 4:02 03-I'll Be AroundDR6 -0.10 dB -7.11 dB 4:00 04-Used To Be My GirlDR5 -0.10 dB -6.32 dB 4:05 05-Soul ViolinsDR5 -0.10 dB -6.63 dB 3:16 06-I Can Dream About YouDR5 -0.10 dB -6.74 dB 4:50 07-Don't Turn Your Back On MeDR6 -0.10 dB -7.77 dB 3:40 08-Fading AwayDR7 0.00 dB -9.42 dB 4:20 09-Neither One Of UsDR5 -0.10 dB -6.83 dB 4:12 10-After The DanceDR5 -0.10 dB -6.23 dB 4:05 11-Rock SteadyDR7 -0.10 dB -8.58 dB 5:21 12-Love TKODR5 -0.10 dB -6.76 dB 4:31 13-What You See Is What You GetDR6 -0.10 dB -7.51 dB 3:48 14-Can't Get Enough Of Your LoveDR5 -0.10 dB -7.05 dB 3:55 15-You Are EverythingDR6 -0.10 dB -7.95 dB 4:07 16-I'm Still In Love With YouDR5 -0.10 dB -6.85 dB 3:51 17-Ooh Child--------------------------------------------------------------------------------
Number of tracks: 17Official DR value: DR5
Samplerate: 44100 HzChannels: 2Bits per sample: 16Bitrate: 976 kbpsCodec: FLAC================================================================================
[protorrent.xyz]_t-5889984
Torrent: Registered ·  [ 2020-05-03 21:05 ] ·  43226e7ef907b3bd8f7bbdbc1027a7d007847a31

13 KB

Status: checked
Completed: 0 times
Size: 558 MB
Rating: 
(Votes: 0)
Say thanks: 0  Thanks
 
Похожие темы
[Profile] [PM]
Display posts from previous:    
Reply to topic

The time now is: Today 14:18

All times are GMT + 7 Hours



You cannot post new topics in this forum
You cannot reply to topics in this forum
You cannot edit your posts in this forum
You cannot delete your posts in this forum
You cannot vote in polls in this forum
You cannot attach files in this forum
You can download files in this forum