Register · 
Username: Password:
 ·  Forgot password?

(R&B) [CD] Percy Sledge - Forever Gold - 2001, FLAC (tracks+.cue), lossless

Reply to topic
DL-List and Torrent activity [Update пиров]
Size:  242 MB   |    Registered:  1 month 4 days   |    Completed:  0 times

Seeder not seen: Never

 
   
 
 
 
Author Message

temkin_88 ®

Gender:

Longevity: 6 years 8 months

Posts: 19250

Post 03-May-2020 00:40

[Quote]

Percy Sledge / Forever Gold
Жанр: R&B
Носитель: CD
Страна-производитель диска (релиза): Canada
Год издания: 2001
Издатель (лейбл): St. Clair Entertainment Group, Inc.
Номер по каталогу: FGD59312
Аудиокодек: FLAC (*.flac)
Тип рипа: tracks+.cue
Продолжительность: 0:46:07.
Источник: собственный рип
Наличие сканов в содержимом раздачи: да
Треклист:
01. When A Man Loves A Woman [0:02:53.29]
02. Try A Little Tenderness [0:03:54.48]
03. My Special Prayer [0:03:01.15]
04. If Loving You Is Wrong [0:03:55.13]
05. You Send Me [0:04:28.42]
06. Baby Help Me [0:02:33.00]
07. Cover Me [0:02:49.30]
08. Take Time To Know Her [0:03:05.64]
09. Ive Been Loving You To Long [0:02:58.72]
10. Warm And Tender Love [0:03:18.47]
11. Bring It On Home To Me [0:03:29.68]
12. It Tears Me Up [0:02:48.38]
13. Just Out Of Reach [0:03:40.19]
14. Dark End Of The Street [0:03:09.54]

Лог создания рипа

Exact Audio Copy V1.3 from 2. September 2016
Отчёт EAC об извлечении, выполненном 29. марта 2020, 21:13
Percy Sledge / Forever Gold
Дисковод: ASUS DRW-1814BLT Adapter: 1 ID: 0
Режим чтения : ДостоверностьИспользование точного потока : ДаОтключение кэша аудио : ДаИспользование указателей C2 : Нет
Коррекция смещения при чтении : 6Способность читать области Lead-in и Lead-out : НетЗаполнение пропущенных сэмплов тишиной : ДаУдаление блоков с тишиной в начале и конце : НетПри вычислениях CRC использовались нулевые сэмплы : ДаИнтерфейс : Встроенный Win32-интерфейс для Win NT/2000Обработка зазоров : Добавлено к предыдущему треку
Выходной формат : Пользовательский кодировщикВыбранный битрейт : 128 kBit/sКачество : ВысокийДобавление ID3-тега : НетУтилита сжатия : C:\Program Files (x86)\Exact Audio Copy\Flac\flac.exeДополнительные параметры : -V -8 -T "Genre=%genre%" -T "Artist=%artist%" -T "Title=%title%" -T "Album=%albumtitle%" -T "Date=%year%" -T "Tracknumber=%tracknr%" -T "Comment=EAC1.0b2 FLAC -8" %source%
TOC извлечённого CD
Трек | Старт | Длительность | Начальный сектор | Конечный сектор --------------------------------------------------------------------- 1 | 0:00.00 | 2:53.29 | 0 | 13003 2 | 2:53.29 | 3:54.48 | 13004 | 30601 3 | 6:48.02 | 3:01.15 | 30602 | 44191 4 | 9:49.17 | 3:55.13 | 44192 | 61829 5 | 13:44.30 | 4:28.42 | 61830 | 81971 6 | 18:12.72 | 2:33.00 | 81972 | 93446 7 | 20:45.72 | 2:49.30 | 93447 | 106151 8 | 23:35.27 | 3:05.64 | 106152 | 120090 9 | 26:41.16 | 2:58.72 | 120091 | 133512 10 | 29:40.13 | 3:18.47 | 133513 | 148409 11 | 32:58.60 | 3:29.68 | 148410 | 164152 12 | 36:28.53 | 2:48.38 | 164153 | 176790 13 | 39:17.16 | 3:40.19 | 176791 | 193309 14 | 42:57.35 | 3:09.54 | 193310 | 207538
Трек 1
Имя файла R:\Раздача 86\Percy Sledge - 2001 - Forever Gold\01 When A Man Loves A Woman.wav
Длина предзазора 0:00:02.00
Пиковый уровень 96.8 % Скорость извлечения 4.6 X Качество трека 100.0 % CRC теста D98D5F92 CRC копии D98D5F92 Точное извлечение (достоверность 1) [01FDA963] (AR v2) Копирование... OK
Трек 2
Имя файла R:\Раздача 86\Percy Sledge - 2001 - Forever Gold\02 Try A Little Tenderness.wav
Пиковый уровень 100.0 % Скорость извлечения 5.2 X Качество трека 100.0 % CRC теста 8D742C3A CRC копии 8D742C3A Точное извлечение (достоверность 1) [6ECD17EA] (AR v2) Копирование... OK
Трек 3
Имя файла R:\Раздача 86\Percy Sledge - 2001 - Forever Gold\03 My Special Prayer.wav
Пиковый уровень 82.8 % Скорость извлечения 5.4 X Качество трека 100.0 % CRC теста FADFE52C CRC копии FADFE52C Точное извлечение (достоверность 1) [031F50D4] (AR v2) Копирование... OK
Трек 4
Имя файла R:\Раздача 86\Percy Sledge - 2001 - Forever Gold\04 If Loving You Is Wrong.wav
Пиковый уровень 78.5 % Скорость извлечения 6.0 X Качество трека 100.0 % CRC теста 4F435A5B CRC копии 4F435A5B Точное извлечение (достоверность 1) [7576B0AB] (AR v2) Копирование... OK
Трек 5
Имя файла R:\Раздача 86\Percy Sledge - 2001 - Forever Gold\05 You Send Me.wav
Пиковый уровень 67.0 % Скорость извлечения 2.1 X Качество трека 99.9 % CRC теста DE326772 CRC копии DE326772 Точное извлечение (достоверность 1) [BE4489D2] (AR v2) Копирование... OK
Трек 6
Имя файла R:\Раздача 86\Percy Sledge - 2001 - Forever Gold\06 Baby Help Me.wav
Пиковый уровень 83.8 % Скорость извлечения 2.3 X Качество трека 100.0 % CRC теста 2702D64E CRC копии 2702D64E Точное извлечение (достоверность 1) [2C9371AB] (AR v2) Копирование... OK
Трек 7
Имя файла R:\Раздача 86\Percy Sledge - 2001 - Forever Gold\07 Cover Me.wav
Пиковый уровень 76.1 % Скорость извлечения 6.6 X Качество трека 100.0 % CRC теста C488ED65 CRC копии C488ED65 Точное извлечение (достоверность 1) [E8195032] (AR v2) Копирование... OK
Трек 8
Имя файла R:\Раздача 86\Percy Sledge - 2001 - Forever Gold\08 Take Time To Know Her.wav
Пиковый уровень 99.7 % Скорость извлечения 7.1 X Качество трека 100.0 % CRC теста 111A25B3 CRC копии 111A25B3 Точное извлечение (достоверность 1) [F8C5D790] (AR v2) Копирование... OK
Трек 9
Имя файла R:\Раздача 86\Percy Sledge - 2001 - Forever Gold\09 Ive Been Loving You To Long.wav
Пиковый уровень 75.3 % Скорость извлечения 2.2 X Качество трека 99.9 % CRC теста 6D83E355 CRC копии 6D83E355 Точное извлечение (достоверность 1) [6C9A36B5] (AR v2) Копирование... OK
Трек 10
Имя файла R:\Раздача 86\Percy Sledge - 2001 - Forever Gold\10 Warm And Tender Love.wav
Пиковый уровень 100.0 % Скорость извлечения 7.6 X Качество трека 100.0 % CRC теста 75294090 CRC копии 75294090 Точное извлечение (достоверность 1) [40C48B26] (AR v2) Копирование... OK
Трек 11
Имя файла R:\Раздача 86\Percy Sledge - 2001 - Forever Gold\11 Bring It On Home To Me.wav
Пиковый уровень 73.0 % Скорость извлечения 7.9 X Качество трека 100.0 % CRC теста C56E0F00 CRC копии C56E0F00 Точное извлечение (достоверность 1) [BD52E816] (AR v2) Копирование... OK
Трек 12
Имя файла R:\Раздача 86\Percy Sledge - 2001 - Forever Gold\12 It Tears Me Up.wav
Пиковый уровень 83.8 % Скорость извлечения 7.8 X Качество трека 100.0 % CRC теста 275C118D CRC копии 275C118D Точное извлечение (достоверность 1) [76F6E9B3] (AR v2) Копирование... OK
Трек 13
Имя файла R:\Раздача 86\Percy Sledge - 2001 - Forever Gold\13 Just Out Of Reach.wav
Пиковый уровень 78.9 % Скорость извлечения 8.3 X Качество трека 100.0 % CRC теста C253E3D3 CRC копии C253E3D3 Точное извлечение (достоверность 1) [9103D8BC] (AR v2) Копирование... OK
Трек 14
Имя файла R:\Раздача 86\Percy Sledge - 2001 - Forever Gold\14 Dark End Of The Street.wav
Пиковый уровень 66.1 % Скорость извлечения 5.4 X Качество трека 100.0 % CRC теста D7AB877E CRC копии D7AB877E Точное извлечение (достоверность 1) [7E412C43] (AR v2) Копирование... OK
Все треки извлечены точно
Ошибок не произошло
Конец отчёта
---- CUETools DB Plugin V2.1.6
[CTDB TOCID: prUdrKFEID7wNZlYiJI_BS6jLeU-] foundSubmit result: prUdrKFEID7wNZlYiJI_BS6jLeU- has been confirmedTrack | CTDB Status 1 | (2/2) Accurately ripped 2 | (2/2) Accurately ripped 3 | (2/2) Accurately ripped 4 | (2/2) Accurately ripped 5 | (2/2) Accurately ripped 6 | (2/2) Accurately ripped 7 | (2/2) Accurately ripped 8 | (2/2) Accurately ripped 9 | (2/2) Accurately ripped 10 | (2/2) Accurately ripped 11 | (2/2) Accurately ripped 12 | (2/2) Accurately ripped 13 | (2/2) Accurately ripped 14 | (2/2) Accurately ripped
==== Контрольная сумма отчёта 1E3C0616CE086A0D5E347CF4E1FB56B4B1737A7A3E850158695B751634777AB3 ====

Содержание индексной карты (.CUE)

REM GENRE R&BREM DATE 2001REM DISCID C00ACF0EREM COMMENT "ExactAudioCopy v1.3"PERFORMER "Percy Sledge"TITLE "Forever Gold"REM COMPOSER ""FILE "01 When A Man Loves A Woman.wav" WAVE  TRACK 01 AUDIO    TITLE "When A Man Loves A Woman"    PERFORMER "Percy Sledge"    REM COMPOSER ""    INDEX 01 00:00:00FILE "02 Try A Little Tenderness.wav" WAVE  TRACK 02 AUDIO    TITLE "Try A Little Tenderness"    PERFORMER "Percy Sledge"    REM COMPOSER ""    INDEX 01 00:00:00FILE "03 My Special Prayer.wav" WAVE  TRACK 03 AUDIO    TITLE "My Special Prayer"    PERFORMER "Percy Sledge"    REM COMPOSER ""    INDEX 01 00:00:00FILE "04 If Loving You Is Wrong.wav" WAVE  TRACK 04 AUDIO    TITLE "If Loving You Is Wrong"    PERFORMER "Percy Sledge"    REM COMPOSER ""    INDEX 01 00:00:00FILE "05 You Send Me.wav" WAVE  TRACK 05 AUDIO    TITLE "You Send Me"    PERFORMER "Percy Sledge"    REM COMPOSER ""    INDEX 01 00:00:00FILE "06 Baby Help Me.wav" WAVE  TRACK 06 AUDIO    TITLE "Baby Help Me"    PERFORMER "Percy Sledge"    REM COMPOSER ""    INDEX 01 00:00:00FILE "07 Cover Me.wav" WAVE  TRACK 07 AUDIO    TITLE "Cover Me"    PERFORMER "Percy Sledge"    REM COMPOSER ""    INDEX 01 00:00:00FILE "08 Take Time To Know Her.wav" WAVE  TRACK 08 AUDIO    TITLE "Take Time To Know Her"    PERFORMER "Percy Sledge"    REM COMPOSER ""    INDEX 01 00:00:00FILE "09 Ive Been Loving You To Long.wav" WAVE  TRACK 09 AUDIO    TITLE "Ive Been Loving You To Long"    PERFORMER "Percy Sledge"    REM COMPOSER ""    INDEX 01 00:00:00FILE "10 Warm And Tender Love.wav" WAVE  TRACK 10 AUDIO    TITLE "Warm And Tender Love"    PERFORMER "Percy Sledge"    REM COMPOSER ""    INDEX 01 00:00:00FILE "11 Bring It On Home To Me.wav" WAVE  TRACK 11 AUDIO    TITLE "Bring It On Home To Me"    PERFORMER "Percy Sledge"    REM COMPOSER ""    INDEX 01 00:00:00FILE "12 It Tears Me Up.wav" WAVE  TRACK 12 AUDIO    TITLE "It Tears Me Up"    PERFORMER "Percy Sledge"    REM COMPOSER ""    INDEX 01 00:00:00FILE "13 Just Out Of Reach.wav" WAVE  TRACK 13 AUDIO    TITLE "Just Out Of Reach"    PERFORMER "Percy Sledge"    REM COMPOSER ""    INDEX 01 00:00:00FILE "14 Dark End Of The Street.wav" WAVE  TRACK 14 AUDIO    TITLE "Dark End Of The Street"    PERFORMER "Percy Sledge"    REM COMPOSER ""    INDEX 01 00:00:00
[protorrent.xyz]_t-5890120
Torrent: Registered ·  [ 2020-05-03 00:40 ] ·  0301d7e8cc00ea4a6ccb0eacf074cd8264c88b13

21 KB

Status: checked
Completed: 0 times
Size: 242 MB
Rating: 
(Votes: 0)
Say thanks: 0  Thanks
 
Похожие темы
[Profile] [PM]
Display posts from previous:    
Reply to topic

The time now is: Today 17:38

All times are GMT + 7 Hours



You cannot post new topics in this forum
You cannot reply to topics in this forum
You cannot edit your posts in this forum
You cannot delete your posts in this forum
You cannot vote in polls in this forum
You cannot attach files in this forum
You can download files in this forum