Register · 
Username: Password:
 ·  Forgot password?

Esbjörn (Esbjorn) Svensson Trio e.s.t. - In Concert (Live In Stockholm) [2000, Contemporary Jazz / Piano Jazz / Swedish Jazz, HDTV, 1080i]

Reply to topic
DL-List and Torrent activity [Update пиров]
Size:  2.89 GB   |    Registered:  1 month 6 days   |    Completed:  0 times

Seeder not seen: Never

 
   
 
 
 
Author Message

rychkalov ®

Gender:

Longevity: 6 years 8 months

Posts: 20386

Post 01-May-2020 02:20

[Quote]

Esbjörn Svensson Trio e.s.t.
In Concert

Live In Stockholm 2000

-
Страна исполнителя: Sweden
Жанр: Contemporary Jazz / Piano Jazz / Swedish Jazz
Продолжительность: 01:35:13
Год выпуска: 2000
Musicians:
Esbjörn Svensson - grand piano
Dan Berglund - double bass
Magnus Öström - drums
Track List:
1. Good Morning Susie Soho (Svensson / Berglund / Öström)
2. From Gagarin's Point of View (Svensson / Berglund / Öström)
3. Definition of a Dog (Svensson / Berglund / Öström)
4. Face of Love (Robbins, D. / Robbins, T. / Khan, N.)
5. Bowling (Svensson / Berglund / Öström)
6. Dodge The Dodo (Svensson / Berglund / Öström)
7. Round Midnight (Hanighen, B. / Williams, C. / Monk, Thelonious)
8. Bemsha Swing (Monk, Thelonious / Best, D.)
9. Intro Bowling (Svensson / Berglund / Öström)
Доп. информация:
... этот же концерт Качество: DVD
Recorded live by Ake Linton at Nalen, Stockholm, December 10, 2000
Esbjörn Svensson Trio Official Site
Esbjörn Svensson Trio from Wikipedia, the free encyclopedia
Esbjörn Svensson from Wikipedia, the free encyclopedia
Esbjörn Svensson Trio e.s.t. Live In Stockholm - DVD actmusic.com
Огромная Благодарность - [url=profile.php?mode=viewprofile&u=15142747]ssegaster[/url] - за предоставленный материал ...
Спасибо большое !!! Качество: HDTV
Разрешение видео/развертка: 1080i
Контейнер: TS
Видео кодек: H.264
Аудио кодек: MPEG
Видео: 3 878 Kbps, 1920*1080 (16:9), at 25.000 fps, AVC (Component) (High@L4.0) (CABAC / 4 Ref Frames)
Аудио: Russian, 256 Kbps, 48.0 KHz, 2 channels, MPEG Audio (Version 1) (Layer 2)

Отчёт MediaInfo

GeneralID                                       : 1 (0x1)Complete name                            : C:\_mezzo live HD\mezzo live HD_Esbjorn Svensson Trio e.s.t. - Live In Stockholm 2000.tsFormat                                   : MPEG-TSFile size                                : 2.89 GiBDuration                                 : 1h 35mnOverall bit rate mode                    : VariableOverall bit rate                         : 4 352 Kbps
VideoID : 306 (0x132)Menu ID : 17106 (0x42D2)Format : AVCFormat/Info : Advanced Video CodecFormat profile : High@L4.0Format settings, CABAC : YesFormat settings, ReFrames : 4 framesCodec ID : 27Duration : 1h 35mnBit rate : 3 878 KbpsWidth : 1 920 pixelsHeight : 1 080 pixelsDisplay aspect ratio : 16:9Frame rate : 25.000 fpsStandard : ComponentColor space : YUVChroma subsampling : 4:2:0Bit depth : 8 bitsScan type : InterlacedScan order : Top Field FirstBits/(Pixel*Frame) : 0.075Stream size : 2.58 GiB (89%)Color primaries : BT.709Transfer characteristics : BT.709Matrix coefficients : BT.709
AudioID : 406 (0x196)Menu ID : 17106 (0x42D2)Format : MPEG AudioFormat version : Version 1Format profile : Layer 2Codec ID : 3Duration : 1h 35mnBit rate mode : ConstantBit rate : 256 KbpsChannel(s) : 2 channelsSampling rate : 48.0 KHzCompression mode : LossyStream size : 174 MiB (6%)Language : Russian

Релизы ESBJÖRN SVENSSON TRIO

1999 ESBJÖRN SVENSSON TRIO - jazz baltica
2000 ESBJÖRN SVENSSON TRIO - IN CONCERT (Live In Stockholm) HDTV 1080i
2001 ESBJÖRN SVENSSON TRIO - Jazzwoche Burghausen
2002 ESBJÖRN SVENSSON TRIO - Leverkusener Jazztage
2003 ESBJÖRN SVENSSON TRIO & SCHLESWIG-HOLSTEIN CHAMBER ORCHESTRA feat. PAT METHENY - jazz baltica
2004 E.S.T. ESBJÖRN SVENSSON TRIO - Jazzwoche Burghausen
2005 ESBJÖRN SVENSSON TRIO - Leverkusener Jazztage
2006 ESBJÖRN SVENSSON TRIO - Timişoara
2006 E.S.T. - Klub Blue Note (Poznań)
2007 E.S.T. ESBJÖRN SVENSSON TRIO - Jazz in Marciac

Релизы с участием ESBJÖRN SVENSSON

1999 ESBJÖRN SVENSSON TRIO - jazz baltica
2000 ESBJÖRN SVENSSON TRIO - IN CONCERT (Live In Stockholm) HDTV 1080i
2001 ESBJÖRN SVENSSON TRIO - Jazzwoche Burghausen
2002 ESBJÖRN SVENSSON TRIO - Leverkusener Jazztage
2003 ESBJÖRN SVENSSON TRIO & SCHLESWIG-HOLSTEIN CHAMBER ORCHESTRA feat. PAT METHENY - jazz baltica
2003 PAT METHENY JAZZBALTICA-PROJECT - jazz baltica
2004 E.S.T. ESBJÖRN SVENSSON TRIO - Jazzwoche Burghausen
2005 ESBJÖRN SVENSSON TRIO - Leverkusener Jazztage
2006 ESBJÖRN SVENSSON TRIO - Timişoara
2006 E.S.T. - Klub Blue Note (Poznań)
2007 E.S.T. ESBJÖRN SVENSSON TRIO - Jazz in Marciac
[protorrent.xyz]_t-5856332
Torrent: Registered ·  [ 2020-05-01 02:20 ] ·  d02dad81a013d8d29001e16ed7777fe952ad7433

15 KB

Status: checked
Completed: 0 times
Size: 2.89 GB
Rating: 
(Votes: 0)
Say thanks: 0  Thanks
 
Похожие темы
[Profile] [PM]
Display posts from previous:    
Reply to topic

The time now is: Today 16:53

All times are GMT + 7 Hours



You cannot post new topics in this forum
You cannot reply to topics in this forum
You cannot edit your posts in this forum
You cannot delete your posts in this forum
You cannot vote in polls in this forum
You cannot attach files in this forum
You can download files in this forum