Register · 
Username: Password:
 ·  Forgot password?

Lisa Stansfield • Live In Manchester [2015, R&B, Soul, Pop, BDRip 720p]

Reply to topic
DL-List and Torrent activity [Update пиров]
Size:  4.37 GB   |    Registered:  1 month 5 days   |    Completed:  1 time

Seeder not seen: 3 days

 
   
 
 
 
Author Message

temkin_88 ®

Gender:

Longevity: 6 years 8 months

Posts: 19248

Post 30-Apr-2020 21:40

[Quote]

Lisa Stansfield
Live In Manchester 2014
Жанр: R&B, Soul, Pop
Продолжительность: 01:43:04
Год выпуска: 2015
01 Can't dance
02 Set your loving free
03 The real thing
04 Stupid heart
05 Never, never gonna give you up
06 8-3-1
07 Make love to ya
08 Change
09 The rain
10 Time to make you mine
11 Picket fence
12 What did I do to you
13 People hold on
14 Someday
15 Conversation
16 It's got to be real
17 Live together
18 So be it
19 There goes my heart
20 Carry on
21 Love can
22 All around the world

Качество: BDRip 720p
Контейнер: MKV
Видео кодек: H.264
Аудио кодек: DTS
Видео: MPEG4 Video (H264) 1280x720 25fps 4 559 Kbps
Аудио: DTS 48000Hz 6ch 1509kbps

Отчёт MediaInfo / BDInfo

GeneralUnique ID                      : 199272161933170549853538984536165066063 (0x95EA6C20C466238F85B7BDB058E0254F)Complete name                  : F:\Lisa Stansfield - Live In Manchester 2014 .mkvFormat                         : MatroskaFormat version                 : Version 4 / Version 2File size                      : 4.37 GiBDuration                       : 1h 43mnOverall bit rate               : 6 070 KbpsEncoded date                   : UTC 2015-10-16 07:01:09Writing application            : mkvmerge v8.0.0 ('Til The Day That I Die') 64bitWriting library                : libebml v1.3.1 + libmatroska v1.4.2DURATION                       : 01:43:03.776000000NUMBER_OF_FRAMES               : 579729NUMBER_OF_BYTES                : 1166414748_STATISTICS_WRITING_APP        : mkvmerge v8.0.0 ('Til The Day That I Die') 64bit_STATISTICS_WRITING_DATE_UTC   : 2015-10-16 07:01:09_STATISTICS_TAGS               : BPS DURATION NUMBER_OF_FRAMES NUMBER_OF_BYTES
VideoID : 1Format : AVCFormat/Info : Advanced Video CodecFormat profile : High@L4.1Format settings, CABAC : YesFormat settings, ReFrames : 5 framesCodec ID : V_MPEG4/ISO/AVCDuration : 1h 43mnBit rate : 4 559 KbpsWidth : 1 280 pixelsHeight : 720 pixelsDisplay aspect ratio : 16:9Frame rate mode : ConstantFrame rate : 25.000 fpsColor space : YUVChroma subsampling : 4:2:0Bit depth : 8 bitsScan type : ProgressiveBits/(Pixel*Frame) : 0.198Stream size : 3.20 GiB (73%)Writing library : x264 core 148 r2638 7599210Encoding settings : cabac=1 / ref=5 / deblock=1:0:0 / analyse=0x3:0x133 / me=umh / subme=8 / psy=1 / psy_rd=1.00:0.00 / mixed_ref=1 / me_range=16 / chroma_me=1 / trellis=1 / 8x8dct=1 / cqm=0 / deadzone=21,11 / fast_pskip=0 / chroma_qp_offset=-2 / threads=12 / lookahead_threads=2 / sliced_threads=0 / nr=0 / decimate=1 / interlaced=0 / bluray_compat=0 / constrained_intra=0 / bframes=3 / b_pyramid=2 / b_adapt=1 / b_bias=0 / direct=1 / weightb=1 / open_gop=0 / weightp=2 / keyint=250 / keyint_min=25 / scenecut=40 / intra_refresh=0 / rc_lookahead=40 / rc=2pass / mbtree=1 / bitrate=4559 / ratetol=1.0 / qcomp=0.60 / qpmin=0 / qpmax=69 / qpstep=4 / cplxblur=20.0 / qblur=0.5 / ip_ratio=1.40 / aq=1:1.00Language : EnglishDefault : YesForced : NoDURATION : 01:43:03.760000000NUMBER_OF_FRAMES : 154594NUMBER_OF_BYTES : 3523603027_STATISTICS_WRITING_APP : mkvmerge v8.0.0 ('Til The Day That I Die') 64bit_STATISTICS_WRITING_DATE_UTC : 2015-10-16 07:01:09_STATISTICS_TAGS : BPS DURATION NUMBER_OF_FRAMES NUMBER_OF_BYTES
AudioID : 2Format : DTSFormat/Info : Digital Theater SystemsMode : 16Format settings, Endianness : BigCodec ID : A_DTSDuration : 1h 43mnBit rate mode : ConstantBit rate : 1 509 KbpsChannel(s) : 6 channelsChannel positions : Front: L C R, Side: L R, LFESampling rate : 48.0 KHzBit depth : 24 bitsCompression mode : LossyStream size : 1.09 GiB (25%)Default : YesForced : No
Menu00:00:00.000 : en:00:00:00.00000:04:55.862 : en:00:04:55.86200:08:47.494 : en:00:08:47.49400:13:16.162 : en:00:13:16.16200:17:28.481 : en:00:17:28.48100:23:12.892 : en:00:23:12.89200:27:03.021 : en:00:27:03.02100:31:32.858 : en:00:31:32.85800:37:00.952 : en:00:37:00.95200:40:57.055 : en:00:40:57.05500:45:34.232 : en:00:45:34.23200:50:01.999 : en:00:50:01.99900:52:29.146 : en:00:52:29.14600:55:25.656 : en:00:55:25.65601:00:08.004 : en:01:00:08.00401:05:40.437 : en:01:05:40.43701:10:59.889 : en:01:10:59.88901:17:09.225 : en:01:17:09.22501:21:39.027 : en:01:21:39.02701:26:04.126 : en:01:26:04.12601:31:24.012 : en:01:31:24.01201:36:34.289 : en:01:36:34.289

Мои раздачи ®

[url=tracker.php?rid=9539252]http:///forum/tracker.php?rid=9539252[/url]
[protorrent.xyz]_t-5098916
Torrent: Registered ·  [ 2020-04-30 21:40 ] ·  a7a7a6a73082e7018f194c4f34ac91aff3337f80

11 KB

Status: checked
Completed: 1 times
Size: 4.37 GB
Rating: 
(Votes: 0)
Say thanks: 0  Thanks
 
Похожие темы
[Profile] [PM]
Display posts from previous:    
Reply to topic

The time now is: Today 18:51

All times are GMT + 7 Hours



You cannot post new topics in this forum
You cannot reply to topics in this forum
You cannot edit your posts in this forum
You cannot delete your posts in this forum
You cannot vote in polls in this forum
You cannot attach files in this forum
You can download files in this forum