Register · 
Username: Password:
 ·  Forgot password?

(Dancehall, Lovers Rock) VA - Reggae Hits Volume 3 - 1986, FLAC (tracks+.cue) lossless

Reply to topic
DL-List and Torrent activity [Update пиров]
Size:  350 MB   |    Registered:  4 months 19 days   |    Completed:  0 times

Seeder not seen: Never

 
   
 
 
 
Author Message

temkin_88 ®

Gender:

Longevity: 6 years 11 months

Posts: 20538

Post 30-Apr-2020 20:30

[Quote]

Reggae Hits Volume 3
Жанр: Dancehall, Lovers Rock
Страна-производитель диска: UK
Год издания диска: 1986
Издатель (лейбл): Jet Star Records ‎
Номер по каталогу: JECD 1003
Аудиокодек: FLAC
Тип рипа: tracks+.cue
Битрейт аудио: lossless
Продолжительность: 00:59:16
Источник: скачано с
сайт-источник/ник/другое: локальная сеть
Наличие сканов в содержимом раздачи: да
Треклист:
01 - Nitty Gritty - Sweet Reggae Music
02 - Frankie Paul - Shub In
03 - Kenny Knots - Watch How The People Dancing
04 - Half Pint - Greetings
05 - Pam Hall - Dear Boopsie
06 - Super Cat - Boops
07 - Sophia George - Girlie Girlie
08 - Admiral Bailey - Politician
09 - Tyrone Taylor - Members Only
10 - Audrey Hall - One Dance Won't Do
11 - Jack Wilson - Six Street
12 - Tippa Irie - Hello Darling
13 - Peter Hunnigale - Be My Lady
14 - Sandra Cross - It's You
15 - Undivided Roots Band - Party Nite
16 - Boris Gardiner - Guilty

Лог создания рипа

Exact Audio Copy V0.99 prebeta 5 from 4. May 2009
EAC extraction logfile from 10 September 2010, 8:14
Various / Reggae Hits Volume 3
Used drive : TSSTcorpCDDVDW SH-S223F Adapter: 1 ID: 1
Read mode : SecureUtilize accurate stream : YesDefeat audio cache : YesMake use of C2 pointers : No
Read offset correction : 6Overread into Lead-In and Lead-Out : NoFill up missing offset samples with silence : YesDelete leading and trailing silent blocks : NoNull samples used in CRC calculations : YesUsed interface : Installed external ASPI interfaceGap handling : Appended to previous track
Used output format : User Defined EncoderSelected bitrate : 128 kBit/sQuality : HighAdd ID3 tag : NoCommand line compressor : C:\Program Files\Exact Audio Copy\FLAC\FLAC.EXEAdditional command line options : -V -8 -T "ARTIST=%a" -T "TITLE=%t" -T "ALBUM=%g" -T "DATE=%y" -T "TRACKNUMBER=%n" -T "GENRE=%m" -T "COMMENT=%e" %s -o %d
TOC of the extracted CD
Track | Start | Length | Start sector | End sector --------------------------------------------------------- 1 | 0:00.33 | 3:38.00 | 33 | 16382 2 | 3:38.33 | 3:55.00 | 16383 | 34007 3 | 7:33.33 | 3:25.00 | 34008 | 49382 4 | 10:58.33 | 3:37.00 | 49383 | 65657 5 | 14:35.33 | 3:53.00 | 65658 | 83132 6 | 18:28.33 | 4:00.00 | 83133 | 101132 7 | 22:28.33 | 3:09.00 | 101133 | 115307 8 | 25:37.33 | 3:37.00 | 115308 | 131582 9 | 29:14.33 | 3:49.00 | 131583 | 148757 10 | 33:03.33 | 4:12.00 | 148758 | 167657 11 | 37:15.33 | 3:32.00 | 167658 | 183557 12 | 40:47.33 | 3:36.00 | 183558 | 199757 13 | 44:23.33 | 4:02.00 | 199758 | 217907 14 | 48:25.33 | 4:11.00 | 217908 | 236732 15 | 52:36.33 | 3:34.00 | 236733 | 252782 16 | 56:10.33 | 3:06.00 | 252783 | 266732
Track 1
Filename D:\Rips\01 - Nitty Gritty - Sweet Reggae Music.wav
Pre-gap length 0:00:02.44
Peak level 90.5 % Track quality 100.0 % Test CRC 96BD020E Copy CRC 96BD020E Cannot be verified as accurate (confidence 1) [21A20973], AccurateRip returned [0F3189DC] Copy OK
Track 2
Filename D:\Rips\02 - Frankie Paul - Shub In.wav
Pre-gap length 0:00:03.00
Peak level 91.5 % Track quality 100.0 % Test CRC E3FC65D6 Copy CRC E3FC65D6 Cannot be verified as accurate (confidence 1) [E007B1E5], AccurateRip returned [C4428AF0] Copy OK
Track 3
Filename D:\Rips\03 - Kenny Knots - Watch How The People Dancing.wav
Pre-gap length 0:00:03.00
Peak level 88.4 % Track quality 100.0 % Test CRC 421838BA Copy CRC 421838BA Cannot be verified as accurate (confidence 1) [F5401E5A], AccurateRip returned [D40237B6] Copy OK
Track 4
Filename D:\Rips\04 - Half Pint - Greetings.wav
Pre-gap length 0:00:03.00
Peak level 99.9 % Track quality 100.0 % Test CRC A7F11991 Copy CRC A7F11991 Cannot be verified as accurate (confidence 1) [FA7A2FB3], AccurateRip returned [FB42FD74] Copy OK
Track 5
Filename D:\Rips\05 - Pam Hall - Dear Boopsie.wav
Pre-gap length 0:00:02.00
Peak level 100.0 % Track quality 100.0 % Test CRC 86EC3329 Copy CRC 86EC3329 Cannot be verified as accurate (confidence 1) [AEA8632F], AccurateRip returned [145A9F7B] Copy OK
Track 6
Filename D:\Rips\06 - Super Cat - Boops.wav
Pre-gap length 0:00:03.00
Peak level 89.3 % Track quality 100.0 % Test CRC 4046D648 Copy CRC 4046D648 Cannot be verified as accurate (confidence 1) [75AF36A1], AccurateRip returned [DE54C2A3] Copy OK
Track 7
Filename D:\Rips\07 - Sophia George - Girlie Girlie.wav
Pre-gap length 0:00:03.00
Peak level 100.0 % Track quality 100.0 % Test CRC 05503892 Copy CRC 05503892 Cannot be verified as accurate (confidence 1) [01A27B5E], AccurateRip returned [5AE563B6] Copy OK
Track 8
Filename D:\Rips\08 - Admiral Bailey - Politician.wav
Pre-gap length 0:00:02.00
Peak level 91.2 % Track quality 100.0 % Test CRC F90CBFE7 Copy CRC F90CBFE7 Cannot be verified as accurate (confidence 1) [33A08100], AccurateRip returned [CAA95EAE] Copy OK
Track 9
Filename D:\Rips\09 - Tyrone Taylor - Members Only.wav
Pre-gap length 0:00:01.00
Peak level 100.0 % Track quality 100.0 % Test CRC 3DA1341D Copy CRC 3DA1341D Cannot be verified as accurate (confidence 1) [0117FCF2], AccurateRip returned [68C26C90] Copy OK
Track 10
Filename D:\Rips\10 - Audrey Hall - One Dance Won't Do.wav
Pre-gap length 0:00:03.00
Peak level 87.4 % Track quality 99.9 % Test CRC 3176B215 Copy CRC 3176B215 Cannot be verified as accurate (confidence 1) [08327473], AccurateRip returned [145F1D03] Copy OK
Track 11
Filename D:\Rips\11 - Jack Wilson - Six Street.wav
Pre-gap length 0:00:02.00
Peak level 92.1 % Track quality 100.0 % Test CRC 9539E8B3 Copy CRC 9539E8B3 Cannot be verified as accurate (confidence 1) [76B1DDC6], AccurateRip returned [56F4F4FA] Copy OK
Track 12
Filename D:\Rips\12 - Tippa Irie - Hello Darling.wav
Pre-gap length 0:00:03.00
Peak level 89.3 % Track quality 100.0 % Test CRC FB41E928 Copy CRC FB41E928 Cannot be verified as accurate (confidence 1) [503D3DB8], AccurateRip returned [A445BBA1] Copy OK
Track 13
Filename D:\Rips\13 - Peter Hunnigale - Be My Lady.wav
Pre-gap length 0:00:03.00
Peak level 95.7 % Track quality 100.0 % Test CRC 9ED5EFCC Copy CRC 9ED5EFCC Cannot be verified as accurate (confidence 1) [AC5CA1C9], AccurateRip returned [9E640FF8] Copy OK
Track 14
Filename D:\Rips\14 - Sandra Cross - It's You.wav
Pre-gap length 0:00:02.00
Peak level 83.0 % Track quality 100.0 % Test CRC 253C3C87 Copy CRC 253C3C87 Cannot be verified as accurate (confidence 1) [C39E2737], AccurateRip returned [8DE4F387] Copy OK
Track 15
Filename D:\Rips\15 - Undivided Roots Band - Party Nite.wav
Pre-gap length 0:00:02.00
Peak level 100.0 % Track quality 100.0 % Test CRC B745BAAF Copy CRC B745BAAF Cannot be verified as accurate (confidence 1) [0C9E1F5E], AccurateRip returned [7FCCA106] Copy OK
Track 16
Filename D:\Rips\16 - Boris Gardiner - Guilty.wav
Pre-gap length 0:00:02.00
Peak level 81.6 % Track quality 100.0 % Test CRC E3BE037F Copy CRC E3BE037F Cannot be verified as accurate (confidence 1) [EA359E49], AccurateRip returned [E4113A5D] Copy OK
No tracks could be verified as accurateYou may have a different pressing from the one(s) in the database
No errors occurred
End of status report

Содержание индексной карты (.CUE)

REM GENRE ReggaeREM DATE 1986REM DISCID E40DE410REM COMMENT "ExactAudioCopy v0.99pb5"PERFORMER "Various"TITLE "Reggae Hits Volume 3"FILE "01 - Nitty Gritty - Sweet Reggae Music.wav" WAVE  TRACK 01 AUDIO    TITLE "Nitty Gritty - Sweet Reggae Music"    PERFORMER "Nitty Gritty - Sweet Reggae Music"    PREGAP 00:00:33    INDEX 01 00:00:00  TRACK 02 AUDIO    TITLE "Frankie Paul - Shub In"    PERFORMER "Frankie Paul - Shub In"    INDEX 00 03:35:00FILE "02 - Frankie Paul - Shub In.wav" WAVE    INDEX 01 00:00:00  TRACK 03 AUDIO    TITLE "Kenny Knots - Watch How The People Dancing"    PERFORMER "Kenny Knots - Watch How The People Dancing"    INDEX 00 03:52:00FILE "03 - Kenny Knots - Watch How The People Dancing.wav" WAVE    INDEX 01 00:00:00  TRACK 04 AUDIO    TITLE "Half Pint - Greetings"    PERFORMER "Half Pint - Greetings"    INDEX 00 03:22:00FILE "04 - Half Pint - Greetings.wav" WAVE    INDEX 01 00:00:00  TRACK 05 AUDIO    TITLE "Pam Hall - Dear Boopsie"    PERFORMER "Pam Hall - Dear Boopsie"    INDEX 00 03:35:00FILE "05 - Pam Hall - Dear Boopsie.wav" WAVE    INDEX 01 00:00:00  TRACK 06 AUDIO    TITLE "Super Cat - Boops"    PERFORMER "Super Cat - Boops"    INDEX 00 03:50:00FILE "06 - Super Cat - Boops.wav" WAVE    INDEX 01 00:00:00  TRACK 07 AUDIO    TITLE "Sophia George - Girlie Girlie"    PERFORMER "Sophia George - Girlie Girlie"    INDEX 00 03:57:00FILE "07 - Sophia George - Girlie Girlie.wav" WAVE    INDEX 01 00:00:00  TRACK 08 AUDIO    TITLE "Admiral Bailey - Politician"    PERFORMER "Admiral Bailey - Politician"    INDEX 00 03:07:00FILE "08 - Admiral Bailey - Politician.wav" WAVE    INDEX 01 00:00:00  TRACK 09 AUDIO    TITLE "Tyrone Taylor - Members Only"    PERFORMER "Tyrone Taylor - Members Only"    INDEX 00 03:36:00FILE "09 - Tyrone Taylor - Members Only.wav" WAVE    INDEX 01 00:00:00  TRACK 10 AUDIO    TITLE "Audrey Hall - One Dance Won't Do"    PERFORMER "Audrey Hall - One Dance Won't Do"    INDEX 00 03:46:00FILE "10 - Audrey Hall - One Dance Won't Do.wav" WAVE    INDEX 01 00:00:00  TRACK 11 AUDIO    TITLE "Jack Wilson - Six Street"    PERFORMER "Jack Wilson - Six Street"    INDEX 00 04:10:00FILE "11 - Jack Wilson - Six Street.wav" WAVE    INDEX 01 00:00:00  TRACK 12 AUDIO    TITLE "Tippa Irie - Hello Darling"    PERFORMER "Tippa Irie - Hello Darling"    INDEX 00 03:29:00FILE "12 - Tippa Irie - Hello Darling.wav" WAVE    INDEX 01 00:00:00  TRACK 13 AUDIO    TITLE "Peter Hunnigale - Be My Lady"    PERFORMER "Peter Hunnigale - Be My Lady"    INDEX 00 03:33:00FILE "13 - Peter Hunnigale - Be My Lady.wav" WAVE    INDEX 01 00:00:00  TRACK 14 AUDIO    TITLE "Sandra Cross - It's You"    PERFORMER "Sandra Cross - It's You"    INDEX 00 04:00:00FILE "14 - Sandra Cross - It's You.wav" WAVE    INDEX 01 00:00:00  TRACK 15 AUDIO    TITLE "Undivided Roots Band - Party Nite"    PERFORMER "Undivided Roots Band - Party Nite"    INDEX 00 04:09:00FILE "15 - Undivided Roots Band - Party Nite.wav" WAVE    INDEX 01 00:00:00  TRACK 16 AUDIO    TITLE "Boris Gardiner - Guilty"    PERFORMER "Boris Gardiner - Guilty"    INDEX 00 03:32:00FILE "16 - Boris Gardiner - Guilty.wav" WAVE    INDEX 01 00:00:00
[protorrent.xyz]_t-5889022
Torrent: Registered ·  [ 2020-04-30 20:30 ] ·  3cfbaa6dd4e6dd0166446017a8e1bfe238f2c72a

16 KB

Status: checked
Completed: 0 times
Size: 350 MB
Rating: 
(Votes: 0)
Say thanks: 0  Thanks
 
Похожие темы
[Profile] [PM]
Display posts from previous:    
Reply to topic

The time now is: Today 07:28

All times are GMT + 7 Hours



You cannot post new topics in this forum
You cannot reply to topics in this forum
You cannot edit your posts in this forum
You cannot delete your posts in this forum
You cannot vote in polls in this forum
You cannot attach files in this forum
You can download files in this forum