Register · 
Username: Password:
 ·  Forgot password?

[TR24][OF] Lido Pimienta - Miss Colombia - 2020 (Pop, Alter Latina, Alternative, Electronic)

Reply to topic
DL-List and Torrent activity [Update пиров]
Size:  466 MB   |    Registered:  4 months 20 days   |    Completed:  0 times

Seeder not seen: Never

 
   
 
 
 
Author Message

Dimas28 ®

Gender:

Longevity: 6 years 11 months

Posts: 27570

Post 30-Apr-2020 02:00

[Quote]

Lido Pimienta / Miss Colombia
Формат записи/Источник записи: [TR24][OF]
Наличие водяных знаков: Нет
Год издания/переиздания диска: 2020
Жанр: Pop, Alter Latina, Alternative, Electronic
Издатель (лейбл): - ANTI-
Продолжительность: 00:43:31
Наличие сканов в содержимом раздачи: Только обложка альбома
Треклист:

1. Para Transcribir (Sol) (02:51)
2. Eso Que Tu Haces (04:33)
3. Nada (feat. Li Saumet) (04:58)
4. Te Quería (04:02)
5. No Pude (03:48)
6. Coming Thru (02:40)
7. Quiero Que Me Salves (Preludio) [feat. Rafael Cassiani Cassiani] (02:33)
8. Quiero Que Me Salves (feat. Sexteto Tabala) (06:11)
9. Pelo Cucu (04:12)
10. Resisto y Ya (02:46)
11. Para Transcribir (Luna) (04:57)


Контейнер: FLAC (*.flac)
Тип рипа: tracks
Разрядность: 24/44,1
Формат: PCM
Количество каналов: 2.0

Лог проверки качества

foobar2000 1.4.5 / Замер динамического диапазона (DR) 1.1.1Дата отчёта:  2020-04-29 21:38:46
--------------------------------------------------------------------------------Анализ: Lido Pimienta / Miss Colombia--------------------------------------------------------------------------------
DR Пики RMS Продолжительность трека--------------------------------------------------------------------------------DR10 -1.55 дБ -15.11 дБ 2:51 1-Para Transcribir (SOL)DR6 -0.45 дБ -9.34 дБ 4:33 2-Eso Que Tu HacesDR8 -0.45 дБ -10.30 дБ 4:59 3-NadaDR6 -0.45 дБ -8.94 дБ 4:02 4-Te QueriaDR6 -1.05 дБ -9.26 дБ 3:49 5-No PudeDR7 -0.45 дБ -11.10 дБ 2:40 6-Coming ThruDR14 -0.45 дБ -17.50 дБ 2:34 7-Quiero Que Me Salves (Preludio)DR11 -0.45 дБ -13.08 дБ 6:12 8-Quiero Que Me SalvesDR9 -0.45 дБ -11.59 дБ 4:12 9-Pelo CucuDR6 -0.45 дБ -8.20 дБ 2:47 10-Resisto Y YaDR8 -0.45 дБ -12.76 дБ 4:57 11-Para Transcribir (LUNA)--------------------------------------------------------------------------------
Количество треков: 11Реальные значения DR: DR8
Частота: 44100 ГцКаналов: 2Разрядность: 24Битрейт: 1455 кбит/сКодек: FLAC================================================================================
Источник (релизер): http://lidopimienta.bandcamp.com/
[protorrent.xyz]_t-5888672
Torrent: Registered ·  [ 2020-04-30 02:00 ] ·  aa7a9a8c1c60ba277ad05ccaab921aa672d29f94

19 KB

Status: checked
Completed: 0 times
Size: 466 MB
Rating: 
(Votes: 0)
Say thanks: 0  Thanks
 
Похожие темы
[Profile] [PM]
Display posts from previous:    
Reply to topic

The time now is: Today 07:21

All times are GMT + 7 Hours



You cannot post new topics in this forum
You cannot reply to topics in this forum
You cannot edit your posts in this forum
You cannot delete your posts in this forum
You cannot vote in polls in this forum
You cannot attach files in this forum
You can download files in this forum