Register · 
Username: Password:
 ·  Forgot password?

(Electro, Synth-Pop, Funk, Soul, Minneapolis Sound) [CD] Jesse Johnson\'s Revue - Jesse Johnson\'s Revue 1985 FLAC (tracks+.cue), lossless

Reply to topic
DL-List and Torrent activity [Update пиров]
Size:  253 MB   |    Registered:  4 months 19 days   |    Completed:  0 times

Seeder not seen: Never

 
   
 
 
 
Author Message

Andrew1225 ®

Gender:

Longevity: 6 years 11 months

Posts: 20990

Post 29-Apr-2020 14:20

[Quote]

Jesse Johnson's Revue - Jesse Johnson's Revue 1985
Жанр:Electro, Synth-pop, Funk, Soul, Minneapolis Sound
Носитель:CD
Страна-производитель диска (релиза):US
Год издания:1985
Издатель (лейбл):A&M Records
Каталожный номер:CD 5024
Страна исполнителя (группы):US
Аудиокодек:FLAC
Тип рипа:tracks +.cue
Битрейт аудио:lossless
Продолжительность:00:41:03
Источник:SoulSeek
Наличие сканов в содержимом раздачи:нет
Tracklist:
01. Be Your Man 6:49
02. I Want My Girl 4:46
03. She Won't Let Go 3:33
04. Just Too Much 6:32
05. Let's Have Some Fun 5:01
06. Can You Help Me?[ 6:22
07. Special Love 4:25
08. She's A Doll 4:58

Log

Exact Audio Copy V1.0 beta 1 from 15. November 2010
EAC extraction logfile from 16. February 2011, 18:12
Jesse Johnson / Jesse Johnson's Revue
Used drive : PLEXTOR DVDR PX-716A Adapter: 3 ID: 0
Read mode : SecureUtilize accurate stream : YesDefeat audio cache : YesMake use of C2 pointers : No
Read offset correction : 30Overread into Lead-In and Lead-Out : NoFill up missing offset samples with silence : YesDelete leading and trailing silent blocks : NoNull samples used in CRC calculations : YesUsed interface : Native Win32 interface for Win NT & 2000Gap handling : Appended to previous track
Used output format : User Defined EncoderSelected bitrate : 128 kBit/sQuality : HighAdd ID3 tag : NoCommand line compressor : C:\Program Files\Exact Audio Copy\Flac\flac.exeAdditional command line options : -V -8 -T "artist=%a" -T "title=%t" -T "album=%g" -T "date=%y" -T "tracknumber=%n" -T "genre=%m" %s
TOC of the extracted CD
Track | Start | Length | Start sector | End sector --------------------------------------------------------- 1 | 0:00.32 | 6:52.25 | 32 | 30956 2 | 6:52.57 | 4:50.28 | 30957 | 52734 3 | 11:43.10 | 3:44.52 | 52735 | 69586 4 | 15:27.62 | 5:29.10 | 69587 | 94271 5 | 20:56.72 | 5:10.55 | 94272 | 117576 6 | 26:07.52 | 5:24.38 | 117577 | 141914 7 | 31:32.15 | 4:27.55 | 141915 | 161994 8 | 35:59.70 | 5:04.20 | 161995 | 184814
Track 1
Filename H:\(ripper)\Jesse Johnson (1985) Jesse Johnson's Revue\01-Be Your Man.wav
Pre-gap length 0:00:02.42
Peak level 100.0 % Extraction speed 4.2 X Track quality 100.0 % Test CRC F3B43C58 Copy CRC F3B43C58 Accurately ripped (confidence 2) [86DD5333] Copy OK
Track 2
Filename H:\(ripper)\Jesse Johnson (1985) Jesse Johnson's Revue\02-I Want My Girl.wav
Pre-gap length 0:00:03.06
Peak level 92.1 % Extraction speed 4.7 X Track quality 100.0 % Test CRC D0F73B82 Copy CRC D0F73B82 Accurately ripped (confidence 3) [DF428AF1] Copy OK
Track 3
Filename H:\(ripper)\Jesse Johnson (1985) Jesse Johnson's Revue\03-She Won't Let Go.wav
Pre-gap length 0:00:03.04
Peak level 98.6 % Extraction speed 4.9 X Track quality 100.0 % Test CRC DD5F2D6D Copy CRC DD5F2D6D Accurately ripped (confidence 3) [912C7864] Copy OK
Track 4
Filename H:\(ripper)\Jesse Johnson (1985) Jesse Johnson's Revue\04-Just Too Much.wav
Pre-gap length 0:00:01.20
Peak level 100.0 % Extraction speed 5.5 X Track quality 100.0 % Test CRC 6B6F412F Copy CRC 6B6F412F Accurately ripped (confidence 3) [1C22F9B7] Copy OK
Track 5
Filename H:\(ripper)\Jesse Johnson (1985) Jesse Johnson's Revue\05-Let's Have Some Fun.wav
Pre-gap length 0:00:02.22
Peak level 100.0 % Extraction speed 5.9 X Track quality 100.0 % Test CRC FADB3F74 Copy CRC FADB3F74 Accurately ripped (confidence 3) [9CB454AE] Copy OK
Track 6
Filename H:\(ripper)\Jesse Johnson (1985) Jesse Johnson's Revue\06-Can You Help Me.wav
Pre-gap length 0:00:02.06
Peak level 100.0 % Extraction speed 6.3 X Track quality 100.0 % Test CRC 1FAD71A0 Copy CRC 1FAD71A0 Accurately ripped (confidence 3) [0541B097] Copy OK
Track 7
Filename H:\(ripper)\Jesse Johnson (1985) Jesse Johnson's Revue\07-Special Love.wav
Pre-gap length 0:00:03.66
Peak level 96.8 % Extraction speed 6.5 X Track quality 100.0 % Test CRC ACB24AE7 Copy CRC ACB24AE7 Accurately ripped (confidence 3) [321209ED] Copy OK
Track 8
Filename H:\(ripper)\Jesse Johnson (1985) Jesse Johnson's Revue\08-She's A Doll.wav
Pre-gap length 0:00:03.80
Peak level 100.0 % Extraction speed 6.9 X Track quality 100.0 % Test CRC 1A0BE873 Copy CRC 1A0BE873 Accurately ripped (confidence 3) [64E1442D] Copy OK
All tracks accurately ripped
No errors occurred
End of status report

Cue

REM GENRE R&BREM DATE 1985REM DISCID 7009A008REM COMMENT "ExactAudioCopy v1.0b1"FILE "01-Be Your Man.wav" WAVE  TRACK 01 AUDIO    PREGAP 00:00:32    INDEX 01 00:00:00  TRACK 02 AUDIO    INDEX 00 06:49:20FILE "02-I Want My Girl.wav" WAVE    INDEX 01 00:00:00  TRACK 03 AUDIO    INDEX 00 04:47:25FILE "03-She Won't Let Go.wav" WAVE    INDEX 01 00:00:00  TRACK 04 AUDIO    INDEX 00 03:43:37FILE "04-Just Too Much.wav" WAVE    INDEX 01 00:00:00  TRACK 05 AUDIO    INDEX 00 05:26:68FILE "05-Let's Have Some Fun.wav" WAVE    INDEX 01 00:00:00  TRACK 06 AUDIO    INDEX 00 05:08:50FILE "06-Can You Help Me.wav" WAVE    INDEX 01 00:00:00  TRACK 07 AUDIO    INDEX 00 05:20:63FILE "07-Special Love.wav" WAVE    INDEX 01 00:00:00  TRACK 08 AUDIO    INDEX 00 04:23:70FILE "08-She's A Doll.wav" WAVE    INDEX 01 00:00:00

Состав

Bobby Vandell, Jerry Hubbard, Jesse Johnson, Kim Cage, Mark Cardenas, Michael Baker, Tim Bradley
НЕ ЗАБЫВАЕМ ГОВОРИТЬ, СПАСИБО!
[protorrent.xyz]_t-5888287
Torrent: Registered ·  [ 2020-04-29 14:20 ] ·  292d0f233bd1959f8f7c6d738dbc2524a5ee0195

21 KB

Status: checked
Completed: 0 times
Size: 253 MB
Rating: 
(Votes: 0)
Say thanks: 0  Thanks
 
Похожие темы
[Profile] [PM]
Display posts from previous:    
Reply to topic

The time now is: Today 15:36

All times are GMT + 7 Hours



You cannot post new topics in this forum
You cannot reply to topics in this forum
You cannot edit your posts in this forum
You cannot delete your posts in this forum
You cannot vote in polls in this forum
You cannot attach files in this forum
You can download files in this forum