Register · 
Username: Password:
 ·  Forgot password?

Голос Дети 7 сезон 09 выпуск от 2020.04.10 [2020, Pop, HDTV, 1080i]

Reply to topic
DL-List and Torrent activity [Update пиров]
Size:  5.41 GB   |    Registered:  1 month 8 days   |    Completed:  0 times

Seeder not seen: Never

 
   
 
 
 
Author Message

Shadow123 ®

Gender:

Longevity: 6 years 8 months

Posts: 16838

Post 27-Apr-2020 21:55

[Quote]

Голос Дети 7 сезон 09 выпуск от 2020.04.10
Год выпуска: 2020
Страна: Россия, Первый канал, Красный квадрат
Жанр: Pop, Show
Продолжительность: 01:25:00
Ведущие: Дмитрий Нагиев, Агата Муцениеце
Наставники: Полина Гагарина, Валерий Меладзе и Василий Вакуленко Баста
Описание: "Первый канал" представляет премьеру шестого сезона музыкального проекта "Голос. Дети". Детский конкурсный проект строится по тем же принципам, что и взрослый. Из тысяч заявок на участие, присланных в адрес "Первого канала", музыкальная редакция отобрала несколько сотен самых достойных. Первым этапом для участников, прошедших предварительный отбор, становятся Слепые прослушивания. Участники выступают по одному с живым аккомпанементом. Наставники не видят участников, но слышат и оценивают их голоса. Любой Наставник может взять исполнителя в свою команду. Если участника выбрали несколько Наставников, то он сам решает, в чью команду идти. К концу этапа в каждой из трех команд окажется по 15 участников. Поединки - Наставники передают участникам свое мастерство, помогают осваивать сцену, но при этом они должны выбрать лучших. Участники соревнуются между собой в Поединках. В каждом Поединке трое представителей одной команды исполняют одну песню и Наставник выбирает лучшего участника в каждой тройке. Пятеро счастливчиков исполняют по одной песне, после чего Наставник выбирает двух конкурсантов, которые проходят в Финал. В Финале сражаются девять лучших участников проекта — по трое из каждой команды. Каждый из участников исполняет одну песню соло, другую — вместе со своими товарищами по команде и Наставником. После этого телезрители голосуют за конкурсантов в прямом эфире. Двое конкурсантов, набравших минимальное число голосов, выбывают. Оставшиеся участники исполняют еще по одной песне, а телезрители через СМС-голосование выбирают победителя проекта.
01. Алиса Савчиц, Елизавета Сметанникова и Марьяна Титова. «Убей мою подругу»
02. Анна Прокопенко, Алина Штырняева и Любава Соляная. «Тучи»
03. Злата Осипова, Дарья Киселева и Софья Льорет. «Good as Hell»
04. Егор Блинов, Иван Кургалин и Владимир Серков. «Фантазер»
05. Олеся Казаченко, Ксения Шаплыко, Валерия Базыкина и Манижа Аминова. «Eye of the Tiger»
06. Елизавета Сметанникова. «Экспонат»
07. Анна Прокопенко. «Nature Boy»
08. Софья Льорет. «Clown»
09. Иван Кургалин. «Слишком влюблен»
10. Олеся Казаченко. «Rise Up»
Качество: HDTV
Разрешение видео/развертка: 1080i
Контейнер: TS
Видео кодек: H.264
Аудио кодек: AC3
Видео: H264; 1920x1080 (16:9); 25.000 fps; ~ 8 017 kb/s
Аудио: AC3, 6 channels, 48000Hz, 384 Кбит/сек
Аудио 2: MP2, 2 channels, 48000Hz, 224 Кбит/сек

Отчёт MediaInfo / BDInfo

GeneralID                             : 1 (0x1)Complete name                  : H:\Голос Дети 7 сезон 09 выпуск от 2020.04.10.tsFormat                         : MPEG-TSFile size                      : 5.41 GiBDuration                       : 1 h 25 minOverall bit rate mode          : VariableOverall bit rate               : 9 079 kb/s
VideoID : 1902 (0x76E)Menu ID : 92 (0x5C)Format : AVCFormat/Info : Advanced Video CodecFormat profile : High@L4Format settings : CABAC / 3 Ref FramesFormat settings, CABAC : YesFormat settings, Reference fra : 3 framesCodec ID : 27Duration : 1 h 25 minBit rate : 8 017 kb/sWidth : 1 920 pixelsHeight : 1 080 pixelsDisplay aspect ratio : 16:9Frame rate : 25.000 FPSStandard : ComponentColor space : YUVChroma subsampling : 4:2:0Bit depth : 8 bitsScan type : InterlacedScan type, store method : Separated fieldsScan order : Top Field FirstBits/(Pixel*Frame) : 0.155Stream size : 4.77 GiB (88%)Color range : LimitedColor primaries : BT.709Transfer characteristics : BT.709Matrix coefficients : BT.709
Audio #1ID : 2902 (0xB56)Menu ID : 92 (0x5C)Format : MPEG AudioFormat version : Version 1Format profile : Layer 2Codec ID : 3Duration : 1 h 25 minBit rate mode : ConstantBit rate : 224 kb/sChannel(s) : 2 channelsSampling rate : 48.0 kHzFrame rate : 41.667 FPS (1152 SPF)Compression mode : LossyStream size : 137 MiB (2%)Language : Russian
Audio #2ID : 3902 (0xF3E)Menu ID : 92 (0x5C)Format : AC-3Format/Info : Audio Coding 3Commercial name : Dolby DigitalCodec ID : 6Duration : 1 h 25 minBit rate mode : ConstantBit rate : 384 kb/sChannel(s) : 6 channelsChannel layout : L R C LFE Ls RsSampling rate : 48.0 kHzFrame rate : 31.250 FPS (1536 SPF)Bit depth : 16 bitsCompression mode : LossyStream size : 234 MiB (4%)Language : RussianService kind : Complete Main
TextID : 33 (0x21)-888Menu ID : 92 (0x5C)Format : Teletext SubtitleLanguage : Russian

Скриншоты




[protorrent.xyz]_t-5879002
Torrent: Registered ·  [ 2020-04-27 21:55 ] ·  6e18d2e9bbbb178e4fc8a659e068dd2dc16d2076

14 KB

Status: checked
Completed: 0 times
Size: 5.41 GB
Rating: 
(Votes: 0)
Say thanks: 0  Thanks
 
Похожие темы
[Profile] [PM]
Display posts from previous:    
Reply to topic

The time now is: Today 17:27

All times are GMT + 7 Hours



You cannot post new topics in this forum
You cannot reply to topics in this forum
You cannot edit your posts in this forum
You cannot delete your posts in this forum
You cannot vote in polls in this forum
You cannot attach files in this forum
You can download files in this forum