Register · 
Username: Password:
 ·  Forgot password?

Охота за трансильванским золотом / The Hunt for Transylvanian Gold (Андрей-Николае Теодореску / Andrei-Nicolae Teodorescu) [2016, Документальный, криминал, история, HDTVRip 1080p]

Reply to topic
DL-List and Torrent activity [Update пиров]
Size:  3.18 GB   |    Registered:  4 months 27 days   |    Completed:  0 times

Seeder not seen: Never

 
   
 
 
 
Author Message

Andrew1225 ®

Gender:

Longevity: 6 years 11 months

Posts: 20990

Post 20-Apr-2020 18:20

[Quote]

Охота за трансильванским золотом / The Hunt for Transylvanian Gold
Год выпуска: 2016
Страна: США, Румыния
Студия: Kogainon Films
Жанр: Документальный, криминал, история
Продолжительность: 00:51:23
Перевод: Одноголосый закадровый
Доп. инфо о переводе: SDI-Media
Русские субтитры: нет
Режиссер: Андрей-Николае Теодореску / Andrei-Nicolae Teodorescu
Описание: Бухарест, столица Румынии... 2011 год... В Национальном музее истории страны выставлены 13 золотых спиралей - ничего подобного мир раньше не видел. Жители Румынии озадачены: это самая важная археологическая тайна страны за последнюю сотню лет. Некоторые считают, что спирали появились во времена царя даков, Децебала, почти 2000 лет назад правившего этими землями из гор Трансильвании. Что это - украшения или священные артефакты, на которые наложено древнее проклятие? Или же золотые спирали всего лишь искусная подделка? Должна ли быть история переписана? Может быть мир принял за чистую монету одну из величайших подделок предметов искусства?
Доп. информация: Релиз:
и
Сэмпл: http://dropmefiles.com/TwqVm
Тип релиза: HDTVRip 1080p
Контейнер: MKV
Видео: 1920x1080 at 25.000 fps, MPEG-4 AVC, ~8440 kbps avg
Аудио: Русский: 48 kHz, AC3, 2/0 (L,R) ch, ~192.00 kbps avg | SDI-Media, текст читает Андрей Градов |
Аудио 2: English: 48 kHz, AC3, 2/0 (L,R) ch, ~224.00 kbps avg
Формат субтитров: English, softsub (SRT) + hurdsub (на румынскую речь)

MediaInfo

GeneralComplete name               : The.Hunt.for.Transylvanian.Gold.(2017).1080p.WEB-DL.Rus.Eng-BLUEBIRD.mkvFormat                      : MatroskaFormat version              : Version 4File size                   : 3.18 GiBDuration                    : 51 min 23 sOverall bit rate            : 8 858 kb/sEncoded date                : UTC 2020-04-09 20:30:14Writing application         : mkvmerge v42.0.0 ('Overtime') 64-bitWriting library             : libebml v1.3.10 + libmatroska v1.5.2
VideoID : 1Format : AVCFormat/Info : Advanced Video CodecFormat profile : High@L4Format settings : CABAC / 4 Ref FramesFormat settings, CABAC : YesFormat settings, Reference : 4 framesCodec ID : V_MPEG4/ISO/AVCDuration : 51 min 23 sBit rate mode : ConstantBit rate : 8 440 kb/sNominal bit rate : 10 000 kb/sWidth : 1 920 pixelsHeight : 1 080 pixelsDisplay aspect ratio : 16:9Frame rate mode : ConstantFrame rate : 25.000 FPSColor space : YUVChroma subsampling : 4:2:0Bit depth : 8 bitsScan type : ProgressiveBits/(Pixel*Frame) : 0.163Stream size : 3.03 GiB (95%)Title : MPEG-4 AVC Video / 8440 kbps / 1080p / 25.000 fps / 16:9 / High Profile 4Language : EnglishDefault : YesForced : NoColor range : LimitedColor primaries : BT.709Transfer characteristics : BT.709Matrix coefficients : BT.709
Audio #1ID : 2Format : AC-3Format/Info : Audio Coding 3Commercial name : Dolby DigitalCodec ID : A_AC3Duration : 51 min 23 sBit rate mode : ConstantBit rate : 192 kb/sChannel(s) : 2 channelsChannel layout : L RSampling rate : 48.0 kHzFrame rate : 31.250 FPS (1536 SPF)Compression mode : LossyStream size : 70.6 MiB (2%)Title : rus / AC3 / 2.0 / 48 kHz / 192 kbps / 16-bitLanguage : RussianService kind : Complete MainDefault : YesForced : Yes
Audio #2ID : 3Format : E-AC-3Format/Info : Enhanced AC-3Commercial name : Dolby Digital PlusCodec ID : A_EAC3Duration : 51 min 23 sBit rate mode : ConstantBit rate : 224 kb/sChannel(s) : 2 channelsChannel layout : L RSampling rate : 48.0 kHzFrame rate : 31.250 FPS (1536 SPF)Compression mode : LossyStream size : 82.3 MiB (3%)Title : eng / EAC3 / 2.0 / 48 kHz / 224 kbps / 16-bitLanguage : EnglishService kind : Complete MainDefault : NoForced : No
TextID : 4Format : UTF-8Codec ID : S_TEXT/UTF8Codec ID/Info : UTF-8 Plain TextDuration : 50 min 28 sBit rate : 65 b/sCount of elements : 699Stream size : 24.2 KiB (0%)Title : eng / SRTLanguage : EnglishDefault : NoForced : No

Скриншоты



Благодарности

Релиз выполнен на основе The Hunt for Transylvanian Gold 2017 1080p AMZN WEB-DL DDP2.0 H.264 -ExREN
За предоставленную для работы русскую дорожку благодарим skorpionN
[protorrent.xyz]_t-5881365
Torrent: Registered ·  [ 2020-04-20 18:20 ] ·  27236b0a5820623b84881f7b942924eb20ea1005

16 KB

Status: checked
Completed: 0 times
Size: 3.18 GB
Rating: 
(Votes: 0)
Say thanks: 0  Thanks
 
Похожие темы
[Profile] [PM]
Display posts from previous:    
Reply to topic

The time now is: Today 13:27

All times are GMT + 7 Hours



You cannot post new topics in this forum
You cannot reply to topics in this forum
You cannot edit your posts in this forum
You cannot delete your posts in this forum
You cannot vote in polls in this forum
You cannot attach files in this forum
You can download files in this forum