Register · 
Username: Password:
 ·  Forgot password?

Театр Фукуямы: Летний секрет / Fukuyama Gekijou: Natsu no Himitsu [OVA] [1 из 1] [Без хардсаба] [JAP+Sub] [1990, приключения, LDRip]

Reply to topic
DL-List and Torrent activity [Update пиров]
Size:  481 MB   |    Registered:  1 month 21 day   |    Completed:  0 times

Seeder not seen: Never

 
   
 
 
 
Author Message

Nestor_13 ®

Gender:

Longevity: 6 years 8 months

Posts: 23904

Post 14-Apr-2020 22:10

[Quote]

Театр Фукуямы: Летний секрет / Fukuyama Gekijou: Natsu no Himitsu / ふくやま劇場
Страна: Япония
Год выпуска: 1990
Жанр: приключения
Тип: OVA
Продолжительность: 1 эп. 56 мин.
Режиссер: Сакурай Митиё
Студия: Urban Product, Mook Animation
Описание: OVA-шка основана на манге Фукуямы Кейко, отсюда и название - "Театр Фукуямы: летний секрет". Являет собой сборник клипов и коротких историй, представленных как рассказы из книжки, которую мышиная семья читает перед сном. Всего 8 историй (4 музыкальных и 4 повествовательных) плюс морской эндинг (выгуливающая креветку на поводке русалко-медуза! ), плюс маленькая вставочка и сами мышки, открывающие и закрывающие ОВАшку.
© World
Качество: LDRip
Тип релиза: Без хардсаба
Формат видео: MKV
Релиз/Автор рипа: Orphan
Видео: AVC, 640x480, 1 000 kb/s, 23.976 fps, 8 bit
Аудио: jpn(int), MP3, 192 kb/s, 48.0 kHz, 2 ch
Субтитры 1: eng(int), ASS
Субтитры 2: rus(ext), ASS, перевод: World_Houp; правки и замечания: Аццкий Критег

Подробные тех. данные

GeneralUnique ID                                : 235329386025852781585458968864418371790 (0xB10ACA87C470D09BBFFD867ECC4318CE)Complete name                            : F:\1\ZR\[Orphan] Fukuyama Gekijou - Natsu no Himitsu\[Orphan] Fukuyama Gekijou - Natsu no Himitsu (LD) [2E06BCD8].mkvFormat                                   : MatroskaFormat version                           : Version 4File size                                : 480 MiBDuration                                 : 55 min 32 sOverall bit rate                         : 1 209 kb/sMovie name                               : [Orphan] Fukuyama GekijouEncoded date                             : UTC 2019-02-15 01:03:23Writing application                      : mkvmerge v7.8.0 ('River Man') 32bit built on Mar 27 2015 16:18:02Writing library                          : libebml v1.3.1 + libmatroska v1.4.2Attachments                              : 123Marker.ttf / ADHOC.TTF / akbar.TTF / Anja Eliane accent002.ttf / antrf.ttf / ArchitectsDaughter.ttf / ArnovaITC TT.ttf / Brush Strokes.ttf / CABIN-BOLD.TTF / Cabin-BoldItalic-TTF.ttf / Cabin-Regular.ttf / cac-moose.ttf / CHINACAT.ttf / FOT-Hourei Std EB Regular(c).ttf / FOT-PopHappinessStd-EB.otf / FOT-PopJoyStd-B(c).otf / FOT-RodinPro-B(c).ttf / FOT-RodinPro-EB(c).ttf / FOT-SeuratPro-B(c).ttf / FOT-SlumpStd-DB(c).otf / hootrg.ttf / SWEETASCANDY.TTF / ERASDEMI.TTF
VideoID : 1Format : AVCFormat/Info : Advanced Video CodecFormat profile : High@L3.2Format settings : CABAC / 16 Ref FramesFormat settings, CABAC : YesFormat settings, Reference frames : 16 framesCodec ID : V_MPEG4/ISO/AVCDuration : 55 min 32 sBit rate : 1 000 kb/sWidth : 640 pixelsHeight : 480 pixelsDisplay aspect ratio : 4:3Frame rate mode : ConstantFrame rate : 23.976 (24000/1001) FPSColor space : YUVChroma subsampling : 4:2:0Bit depth : 8 bitsScan type : ProgressiveBits/(Pixel*Frame) : 0.136Stream size : 397 MiB (83%)Title : VideoWriting library : x264 core 148 r2694bm 3b70645Encoding settings : cabac=1 / ref=16 / deblock=1:1:1 / analyse=0x3:0x133 / me=tesa / subme=11 / psy=1 / psy_rd=0.40:0.00 / mixed_ref=1 / me_range=24 / chroma_me=1 / trellis=2 / 8x8dct=1 / cqm=0 / deadzone=21,11 / fast_pskip=0 / chroma_qp_offset=-2 / threads=15 / lookahead_threads=3 / sliced_threads=0 / nr=0 / decimate=1 / interlaced=0 / bluray_compat=0 / constrained_intra=0 / bframes=16 / b_pyramid=2 / b_adapt=2 / b_bias=0 / direct=3 / weightb=1 / open_gop=0 / weightp=2 / keyint=250 / keyint_min=23 / scenecut=40 / intra_refresh=0 / rc_lookahead=60 / rc=2pass / mbtree=1 / bitrate=1000 / ratetol=1.0 / qcomp=0.60 / qpmin=0 / qpmax=69 / qpstep=4 / cplxblur=20.0 / qblur=0.5 / ip_ratio=1.40 / aq=1:0.60Default : YesForced : No
AudioID : 2Format : MPEG AudioFormat version : Version 1Format profile : Layer 3Format settings : Joint stereoCodec ID : A_MPEG/L3Codec ID/Hint : MP3Duration : 55 min 32 sBit rate mode : ConstantBit rate : 192 kb/sChannel(s) : 2 channelsSampling rate : 48.0 kHzFrame rate : 41.667 FPS (1152 SPF)Compression mode : LossyStream size : 76.3 MiB (16%)Title : Japanese audioLanguage : JapaneseDefault : YesForced : No
TextID : 3Format : ASSCodec ID : S_TEXT/ASSCodec ID/Info : Advanced Sub Station AlphaDuration : 55 min 5 sBit rate : 2 349 b/sCount of elements : 8033Compression mode : LosslessStream size : 948 KiB (0%)Title : English subtitlesLanguage : EnglishDefault : YesForced : No
Menu00:00:00.000 : en:Opening Credits00:01:59.390 : en:The Rabbit's Siblings00:06:14.970 : en:Summer Secret00:08:50.500 : en:The Mysterious Fairy00:16:19.040 : en:Henoheno00:30:00.690 : en:Kuro00:32:23.580 : en:The Punk Rabbit's Dance00:36:40.260 : en:End-of-Semester Cleaning Contest00:42:08.330 : en:The Origami Princess00:50:31.460 : en:Ending Credits00:54:38.120 : en:Epilogue

Скриншоты

[protorrent.xyz]_t-5880585
Torrent: Registered ·  [ 2020-04-14 22:10 ] ·  66b9eb311868cbb33788166e189bfaa850143754

19 KB

Status: checked
Completed: 0 times
Size: 481 MB
Rating: 
(Votes: 0)
Say thanks: 0  Thanks
 
Похожие темы
[Profile] [PM]
Display posts from previous:    
Reply to topic

The time now is: Today 17:20

All times are GMT + 7 Hours



You cannot post new topics in this forum
You cannot reply to topics in this forum
You cannot edit your posts in this forum
You cannot delete your posts in this forum
You cannot vote in polls in this forum
You cannot attach files in this forum
You can download files in this forum