Register · 
Username: Password:
 ·  Forgot password?

ЕРЕВАН-МОСКВА-ВЯЗЬМА в 3Д / 3D (Alex Вязьма) [2018, документальный, любительский, HDTV] Half SideBySide / Горизонтальная анаморфная стереопара

Reply to topic
DL-List and Torrent activity [Update пиров]
Size:  8.7 GB   |    Registered:  1 month 25 days   |    Completed:  0 times

Seeder not seen: Never

 
   
 
 
 
Author Message

Andrew1225 ®

Gender:

Longevity: 6 years 8 months

Posts: 19612

Post 10-Apr-2020 21:55

[Quote]

ЕРЕВАН-МОСКВА-ВЯЗЬМА в 3D
Год выпуска: 2018
Страна: Россия
Студия: А-студия
Жанр: документальный, любительский
Продолжительность: 00:47:13
Русские субтитры: нет
Режиссер на русском: Alex Вязьма
Описание: ЕРЕВАН: Фильм-экскурсия, познавательно для тех, кто собирается в Ереван в первый раз. Мы пройдем по маршруту: Парк Победы, памятник Мать-Армения, Каскад, площадь Свободы, оперный театр, Северный проспект, площадь Республики, Вернисаж и площадь Шарля Азнавура, комплекс отдыха и развлечений "Фараон". Коньячный завод "АРАРАТ", дегустация знаменитого коньяка, старинный квартал Конд, собор Григория Просветителя, аэропорт Звартноц, ереванское метро.
МОСКВА: гостиница "Космос", парк "Зарядье", Московский океонариум на ВДНХ, военная выставка "Интерполитех-2018".
ВЯЗЬМА: реконструкция знаменитого Вяземского сражения с французами на центральной площади города в 1812 году.

Качество: HDTV
Контейнер: TS
Формат 3D: Half SideBySide / Горизонтальная анаморфная стереопара
Порядок ракурсов: левый ракурс первый
Видео кодек: Mpeg2
Аудио кодек: AC3
Видео: H.264/AVC, 26,4 Мбит/сек, 1920х1080i, 16:9, 25 кадров/сек. (PAL)
Аудио: Dolby Digital, 16 бит, 6 каналов, 48 кГц, 384 Кбит/сек

MediaInfo

бщее
Полное имя : F:\Видео\Домашнее видео\Видео в 3D\Ереван - Москва 3D.mpg
Формат : MPEG-PS
Размер файла : 8,70 Гбайт
Продолжительность : 47 м. 13 с.
Режим общего битрейта : Переменный
Общий поток : 26,4 Мбит/сек
Видео
Идентификатор : 224 (0xE0)
Формат : MPEG Video
Версия формата : Version 2
Профиль формата : Main@High
Настройки формата : CustomMatrix / BVOP
Параметр BVOP формата : Да
Параметр матрицы формата : Выборочная
Параметр GOP формата : M=3, N=12
Структура изображения : Frame
Продолжительность : 47 м. 13 с.
Вид битрейта : Переменный
Битрейт : 25,5 Мбит/сек
Максимальный битрейт : 25,7 Мбит/сек
Ширина : 1920 пикселей
Высота : 1080 пикселей
Соотношение сторон : 16:9
Частота кадров : 25,000 кадров/сек
Стандарт вещания : Component
Цветовое пространство : YUV
Субдискретизация насыщенности : 4:2:0
Битовая глубина : 8 бит
Тип развёртки : Чересстрочная
Порядок развёртки : Верхнее поле первое
Метод сжатия : С потерями
Бит/(Пиксели*Кадры) : 0.491
Временной код первого кадра : 00:00:00:00
Оригинал временного кода : Group of pictures header
GOP, открыто/закрыто : Открыто
GOP, открыто/закрыто на первом кадре : Закрыто
Размер потока : 8,40 Гбайт (97%)
Основные цвета : BT.709
Характеристики трансфера : BT.709
Коэффициенты матрицы : BT.709
Аудио
Идентификатор : 189 (0xBD)-129 (0x81)
Формат : AC-3
Формат/Информация : Audio Coding 3
Коммерческое название : Dolby Digital
Режим смешивания : DVD-Video
Продолжительность : 47 м. 13 с.
Вид битрейта : Постоянный
Битрейт : 384 Кбит/сек
Каналы : 6 каналов
ChannelLayout : L R C LFE Ls Rs
Частота : 48,0 КГц
Частота кадров : 31,250 кадров/сек (1536 SPF)
Битовая глубина : 16 бит
Метод сжатия : С потерями
Размер потока : 130 Мбайт (1%)
ServiceKind/String : Complete Main

Скриншоты

[protorrent.xyz]_t-5747531
Torrent: Registered ·  [ 2020-04-10 21:55 ] ·  e2f2d598fa6a18e258542c255b464ee43aedc538

22 KB

Status: checked
Completed: 0 times
Size: 8.7 GB
Rating: 
(Votes: 0)
Say thanks: 0  Thanks
 
Похожие темы
[Profile] [PM]
Display posts from previous:    
Reply to topic

The time now is: Today 18:56

All times are GMT + 7 Hours



You cannot post new topics in this forum
You cannot reply to topics in this forum
You cannot edit your posts in this forum
You cannot delete your posts in this forum
You cannot vote in polls in this forum
You cannot attach files in this forum
You can download files in this forum