Register · 
Username: Password:
 ·  Forgot password?

Берлин в Берлине / Berlin in Berlin (Синан Четин / Sinan Çetin) [1993, Турция, Германия, мелодрама, драма, WEBRip (720p)] VO (Horror Maker)

Reply to topic
DL-List and Torrent activity [Update пиров]
Size:  1.31 GB   |    Registered:  1 month 29 days   |    Completed:  0 times

Seeder not seen: Never

 
   
 
 
 
Author Message

rychkalov ®

Gender:

Longevity: 6 years 8 months

Posts: 20386

Post 08-Apr-2020 02:25

[Quote]

Берлин в Берлине / Berlin in Berlin
Страна: Турция, Германия
Жанр: мелодрама, драма
Год выпуска: 1993
Продолжительность: 01:34:27-Перевод: Одноголосый закадровый (Horror Maker)
Субтитры: нет
Оригинальная аудиодорожка: нет-Режиссер: Синан Четин / Sinan Çetin-В ролях:Хюлья Авшар, Джем Ёзер, Армин Блок, Алийе Рона, Эшреф Колчак, Нилюфер Айдан, Клеменс-Мария Хаас, Зафер Эргин, Эмрах Айдемир-Описание:
Молодой немец, сфотографировавший красивую турчанку без разрешения, вынужден был вступить в драку с ее мужем и нечаянно убил его. Мучимый угрызениями совести, он отправился в турецкий квартал Берлина и волею случая оказался в доме убитого им человека. Закон кровной мести против закона о неприкосновенности гостя… Что окажется сильнее?-Доп. информация: Автор релиза на Кинозале: rew8612010.-Сэмпл: http://multi-up.com/-Качество видео: WEBRip (720p)
Формат видео: MP4
Видео: 1280x720 (16:9), 25.000 fps, AVC, ~1792 Kbps, 0.078 bits/pixel
Аудио: , 44.1 KHz, AAC LC, 2 ch, 192 Kbps

MediaInfo

Формат                                   : MPEG-4Профиль формата                          : Base MediaИдентификатор кодека                     : isomРазмер файла                             : 1,31 ГбайтПродолжительность                        : 1 ч. 34 м.Режим общего битрейта                    : ПеременныйОбщий поток                              : 1990 Кбит/секПрограмма кодирования                    : Lavf58.20.100
ВидеоИдентификатор : 1Формат : AVCФормат/Информация : Advanced Video CodecПрофиль формата : High@L3.1Параметр CABAC формата : ДаПараметр ReFrames формата : 2 кадраПараметр GOP формата : M=3, N=25Идентификатор кодека : avc1Идентификатор кодека/Информация : Advanced Video CodingПродолжительность : 1 ч. 34 м.Вид битрейта : ПеременныйБитрейт : 1800 Кбит/секШирина : 1280 пикселейВысота : 720 пикселейСоотношение сторон : 16:9Режим частоты кадров : ПостоянныйЧастота кадров : 25,000 кадров/секЦветовое пространство : YUVСубдискретизация насыщенности : 4:2:0Битовая глубина : 8 битТип развёртки : ПрогрессивнаяБит/(Пиксели*Кадры) : 0.078Размер потока : 1,18 Гбайт (90%)
АудиоИдентификатор : 2Формат : AACФормат/Информация : Advanced Audio CodecПрофиль формата : LCИдентификатор кодека : 40Продолжительность : 1 ч. 34 м.Duration_LastFrame : -12 мс.Вид битрейта : ПостоянныйБитрейт : 192 Кбит/секКаналы : 2 каналаРасположение каналов : Front: L RЧастота : 44,1 КГцМетод сжатия : С потерямиРазмер потока : 130 Мбайт (10%)

Скриншот c названием фильма

Скриншоты

[protorrent.xyz]_t-5875065
Torrent: Registered ·  [ 2020-04-08 02:25 ] ·  4ad284fd4f92d24c40c5c354cac6eecbcdfca86c

14 KB

Status: checked
Completed: 0 times
Size: 1.31 GB
Rating: 
(Votes: 0)
Say thanks: 0  Thanks
 
Похожие темы
[Profile] [PM]
Display posts from previous:    
Reply to topic

The time now is: Today 16:52

All times are GMT + 7 Hours



You cannot post new topics in this forum
You cannot reply to topics in this forum
You cannot edit your posts in this forum
You cannot delete your posts in this forum
You cannot vote in polls in this forum
You cannot attach files in this forum
You can download files in this forum