Register · 
Username: Password:
 ·  Forgot password?

[TR24][OF] STUB records - Music For Video (Collection) - 2020 (coldwave, electro-clash, soundtrack)

Reply to topic
DL-List and Torrent activity [Update пиров]
Size:  1.26 GB   |    Registered:  2 months 4 days   |    Completed:  1 time

Seeder not seen: 1 month 26 days

 
   
 
 
 
Author Message

Nestor_13 ®

Gender:

Longevity: 6 years 8 months

Posts: 23904

Post 02-Apr-2020 04:35

[Quote]

STUB records / Music For Video
Формат записи/Источник записи: [TR24][OF]
Наличие водяных знаков: Нет
Издание: Collection
Год издания: 2020
Жанр: coldwave, electro-clash, soundtrack
Издатель (лейбл): STUB records
Источник: stubrecords.bandcamp.com
Продолжительность: 59:14
Наличие сканов: обложка
-
Треклист:
1. Amphibian 02:53
2. Aspiration 01:36
3. Consent 01:24
4. Detachment 02:24
5. Distortion 02:15
6. Elasticity 02:22
7. Euphoria 02:15
8. Evacuation 02:46
9. Evolution 02:12
10. Imminence 02:50
11. Improvement 02:28
12. Incommensurable 02:38
13. Largeroll 02:27
14. Panacea 01:58
15. Parallels 01:20
16. Perception 02:32
17. Premeditation 02:25
18. Rating 02:30
19. Regularity 02:14
20. Returns 02:29
21. Simplification 02:11
22. Suffocation 02:24
23. Tension 02:14
24. Turbulence 01:57
25. Warning 02:21
26. Whim 02:09
-
Контейнер: FLAC (*.flac)
Тип рипа: tracks
Разрядность: 24/96
Формат: PCM
Количество каналов: 2.0
-

Динамический диапазон (DR)

foobar2000 1.4.1 / Замер динамического диапазона (DR) 1.1.1Дата отчёта:  2020-03-31 21:47:47
--------------------------------------------------------------------------------Анализ: STUB records / Music For Video--------------------------------------------------------------------------------
DR Пики RMS Продолжительность трека--------------------------------------------------------------------------------DR7 -0.44 дБ -8.94 дБ 2:53 01-AmphibianDR11 -0.45 дБ -13.30 дБ 1:36 02-AspirationDR10 -0.42 дБ -12.07 дБ 1:24 03-ConsentDR12 -0.21 дБ -13.12 дБ 2:24 04-DetachmentDR10 -0.58 дБ -12.12 дБ 2:15 05-DistortionDR10 -0.34 дБ -12.01 дБ 2:22 06-ElasticityDR8 -0.54 дБ -9.43 дБ 2:15 07-EuphoriaDR8 -0.50 дБ -9.08 дБ 2:46 08-EvacuationDR8 -0.54 дБ -10.46 дБ 2:12 09-EvolutionDR10 -0.32 дБ -11.10 дБ 2:50 10-ImminenceDR8 -0.54 дБ -9.62 дБ 2:28 11-ImprovementDR11 -0.42 дБ -12.67 дБ 2:38 12-IncommensurableDR10 -0.32 дБ -11.66 дБ 2:27 13-LargerollDR9 -0.35 дБ -11.16 дБ 1:58 14-PanaceaDR11 -0.66 дБ -14.45 дБ 1:20 15-ParallelsDR11 -0.32 дБ -12.61 дБ 2:32 16-PerceptionDR8 -0.50 дБ -9.19 дБ 2:25 17-PremeditationDR8 -0.44 дБ -9.23 дБ 2:30 18-RatingDR10 -0.44 дБ -12.29 дБ 2:14 19-RegularityDR8 -0.52 дБ -9.29 дБ 2:29 20-ReturnsDR10 -0.39 дБ -12.15 дБ 2:11 21-SimplificationDR12 -0.39 дБ -13.33 дБ 2:24 22-SuffocationDR10 -0.38 дБ -12.57 дБ 2:14 23-TensionDR10 -0.45 дБ -12.41 дБ 1:57 24-TurbulenceDR8 -0.60 дБ -10.10 дБ 2:21 25-WarningDR10 -0.30 дБ -11.49 дБ 2:09 26-Whim--------------------------------------------------------------------------------
Количество треков: 26Реальные значения DR: DR9
Частота: 96000 ГцКаналов: 2Разрядность: 24Битрейт: 3107 кбит/сКодек: FLAC================================================================================

-
Еще из этой серии: http:///forum/viewtopic.php?t=5871819-
[protorrent.xyz]_t-5873962
Torrent: Registered ·  [ 2020-04-02 04:35 ] ·  ac86c59fdc12b12e3c8f622bd84e2de3c87dc682

14 KB

Status: checked
Completed: 1 times
Size: 1.26 GB
Rating: 
(Votes: 0)
Say thanks: 0  Thanks
 
Похожие темы
[Profile] [PM]
Display posts from previous:    
Reply to topic

The time now is: Today 17:00

All times are GMT + 7 Hours



You cannot post new topics in this forum
You cannot reply to topics in this forum
You cannot edit your posts in this forum
You cannot delete your posts in this forum
You cannot vote in polls in this forum
You cannot attach files in this forum
You can download files in this forum