Register · 
Username: Password:
 ·  Forgot password?

(Electronic, Ambient) [CD] Vadim Pitsounov - Cosmograph - 2005, FLAC (image+.cue), lossless

Reply to topic
DL-List and Torrent activity [Update пиров]
Size:  376 MB   |    Registered:  2 months 6 days   |    Completed:  0 times

Seeder not seen: Never

 
   
 
 
 
Author Message

ANTON1404 ®

Gender:

Longevity: 6 years 8 months

Posts: 20654

Post 31-Mar-2020 19:35

[Quote]

Vadim Pitsounov / Cosmograph
Жанр: Electronic, Ambient
Носитель: CD
Страна-производитель диска (релиза): Russia
Год издания: 2005
Издатель (лейбл): Not On Label (Vadim Pitsounov Self-released)
Страна исполнителя (группы): Russia
Аудиокодек: FLAC (*.flac)
Тип рипа: image+.cue
Продолжительность: 01:00:51
Источник: собственный рип
Наличие сканов в содержимом раздачи: нет
Треклист:
1. Idea 1 3:59
2. Stella 4:21
3. Mental 4:56
4. Proba 4:42
5. Duna 7:18
6. Memo 5:14
7. Idea 2 5:16
8. Start 3:50
9. Kontakt 3:38
10. Antares 5:35
11. Nukalarm 6:41
12. Amen 5:21

Лог создания рипа

Exact Audio Copy V1.3 from 2. September 2016
EAC extraction logfile from 29. March 2020, 1:02
Vadim Pitsounov / Cosmograph
Used drive : PIONEER BD-RW BDR-208M Adapter: 1 ID: 0
Read mode : SecureUtilize accurate stream : YesDefeat audio cache : YesMake use of C2 pointers : No
Read offset correction : 667Overread into Lead-In and Lead-Out : NoFill up missing offset samples with silence : YesDelete leading and trailing silent blocks : NoNull samples used in CRC calculations : YesUsed interface : Native Win32 interface for Win NT & 2000
Used output format : User Defined EncoderSelected bitrate : 1024 kBit/sQuality : HighAdd ID3 tag : NoCommand line compressor : C:\Program Files (x86)\Exact Audio Copy\Flac\flac.exeAdditional command line options : -V -8 -T "Date=%year%" -T "Genre=%genre%" %source%
TOC of the extracted CD
Track | Start | Length | Start sector | End sector --------------------------------------------------------- 1 | 0:00.00 | 3:58.72 | 0 | 17921 2 | 3:58.72 | 4:21.26 | 17922 | 37522 3 | 8:20.23 | 4:55.66 | 37523 | 59713 4 | 13:16.14 | 4:41.52 | 59714 | 80840 5 | 17:57.66 | 7:18.26 | 80841 | 113716 6 | 25:16.17 | 5:13.62 | 113717 | 137253 7 | 30:30.04 | 5:16.10 | 137254 | 160963 8 | 35:46.14 | 3:49.71 | 160964 | 178209 9 | 39:36.10 | 3:38.00 | 178210 | 194559 10 | 43:14.10 | 5:34.66 | 194560 | 219675 11 | 48:49.01 | 6:40.49 | 219676 | 249724 12 | 55:29.50 | 5:21.32 | 249725 | 273831
Range status and errors
Selected range
Filename C:\Users\jeanl\Music\Vadim Pitsounov - Cosmograph.wav
Peak level 100.0 % Extraction speed 6.6 X Range quality 100.0 % Test CRC A39777AA Copy CRC A39777AA Copy OK
No errors occurred
AccurateRip summary
Track 1 not present in databaseTrack 2 not present in databaseTrack 3 not present in databaseTrack 4 not present in databaseTrack 5 not present in databaseTrack 6 not present in databaseTrack 7 not present in databaseTrack 8 not present in databaseTrack 9 not present in databaseTrack 10 not present in databaseTrack 11 not present in databaseTrack 12 not present in database
None of the tracks are present in the AccurateRip database
End of status report
---- CUETools DB Plugin V2.1.6
[CTDB TOCID: gHfhY_HjzCwbeoi2yc856LMGquQ-] disk not present in databaseSubmit result: gHfhY_HjzCwbeoi2yc856LMGquQ- has been uploaded
==== Log checksum 36FE8452A46B873D11E3136ACEE1CC971AE8C394344614ED8062E1B18CF22F0A ====
Содержимое индексной карты (.CUE)

скрытый текст

REM DISCID A70E430C
REM COMMENT "ExactAudioCopy v1.3"
PERFORMER "Vadim Pitsounov"
TITLE "Cosmograph"
REM COMPOSER "Vadim Pitsounov"
FILE "Vadim Pitsounov - Cosmograph.flac" WAVE
TRACK 01 AUDIO
TITLE "Idea 1"
PERFORMER "Vadim Pitsounov"
REM COMPOSER "Vadim Pitsounov"
INDEX 01 00:00:00
TRACK 02 AUDIO
TITLE "Stella"
PERFORMER "Vadim Pitsounov"
REM COMPOSER "Vadim Pitsounov"
INDEX 01 03:58:72
TRACK 03 AUDIO
TITLE "Mental"
PERFORMER "Vadim Pitsounov"
REM COMPOSER "Vadim Pitsounov"
INDEX 01 08:20:23
TRACK 04 AUDIO
TITLE "Proba"
PERFORMER "Vadim Pitsounov"
REM COMPOSER "Vadim Pitsounov"
INDEX 01 13:16:14
TRACK 05 AUDIO
TITLE "Duna"
PERFORMER "Vadim Pitsounov"
REM COMPOSER "Vadim Pitsounov"
INDEX 01 17:57:66
TRACK 06 AUDIO
TITLE "Memo"
PERFORMER "Vadim Pitsounov"
REM COMPOSER "Vadim Pitsounov"
INDEX 01 25:16:17
TRACK 07 AUDIO
TITLE "Idea 2"
PERFORMER "Vadim Pitsounov"
REM COMPOSER "Vadim Pitsounov"
INDEX 01 30:30:04
TRACK 08 AUDIO
TITLE "Start"
PERFORMER "Vadim Pitsounov"
REM COMPOSER "Vadim Pitsounov"
INDEX 01 35:46:14
TRACK 09 AUDIO
TITLE "Kontakt"
PERFORMER "Vadim Pitsounov"
REM COMPOSER "Vadim Pitsounov"
INDEX 01 39:36:10
TRACK 10 AUDIO
TITLE "Antares"
PERFORMER "Vadim Pitsounov"
REM COMPOSER "Vadim Pitsounov"
INDEX 01 43:14:10
TRACK 11 AUDIO
TITLE "Nukalarm"
PERFORMER "Vadim Pitsounov"
REM COMPOSER "Vadim Pitsounov"
INDEX 01 48:49:01
TRACK 12 AUDIO
TITLE "Amen"
PERFORMER "Vadim Pitsounov"
REM COMPOSER "Vadim Pitsounov"
INDEX 01 55:29:50
Доп. информация:
[protorrent.xyz]_t-5872862
Torrent: Registered ·  [ 2020-03-31 19:35 ] ·  88b23b9dbee8fabf39f99eaae48a92c9c325c516

15 KB

Status: checked
Completed: 0 times
Size: 376 MB
Rating: 
(Votes: 0)
Say thanks: 0  Thanks
 
Похожие темы
[Profile] [PM]
Display posts from previous:    
Reply to topic

The time now is: Today 15:53

All times are GMT + 7 Hours



You cannot post new topics in this forum
You cannot reply to topics in this forum
You cannot edit your posts in this forum
You cannot delete your posts in this forum
You cannot vote in polls in this forum
You cannot attach files in this forum
You can download files in this forum