Register · 
Username: Password:
 ·  Forgot password?

(Trip Hop, Drum & Bass) [CD] Zen And St. Semelia - Trip Hop - 1999, FLAC (tracks+.cue), lossless

Reply to topic
DL-List and Torrent activity [Update пиров]
Size:  285 MB   |    Registered:  5 months 18 days   |    Completed:  1 time

Seeder not seen: 5 months 3 days

 
   
 
 
 
Author Message

FragoMan ®

Gender:

Longevity: 6 years 11 months

Posts: 28780

Post 30-Mar-2020 22:20

[Quote]

Zen And St. Semelia / Trip Hop
Жанр: Trip Hop, Drum & Bass
Носитель: CD
Страна-производитель диска (релиза): UK
Год издания: 1999
Издатель (лейбл): Street Beat Sound Collective
Номер по каталогу: SBSC8479
Аудиокодек: FLAC (*.flac)
Тип рипа: tracks+.cue
Продолжительность: 00:50:19
Источник: собственная коллекция
Наличие сканов в содержимом раздачи: нет
Треклист:
1. Half Asleep (Dream Vox Trip Mix) 6:01
2. Go Ahead London (Urban Trip Mix) 4:28
3. Dreaded Weed (Skank Trip Mix) 4:33
4. Lost It (Urban Trip Mix) 5:23
5. Moleish Mind (Trumpet Trip Mix) 3:44
6. Dealing With Madness (Heavy Chill Trip Mix) 4:45
7. Just Feel It (House Trip Mix) 6:28
8. Stupid Dope Fresh (Heavy Chill Trip Mix) 5:43
9. On The Kutt (Scratch Trip Mix) 4:06
10. Kool In The Shade (Chill Trip Mix) 5:08

Лог создания рипа

Exact Audio Copy V1.5 from 20. February 2020
EAC extraction logfile from 25. March 2020, 9:34
Zen And St. Semelia / Trip Hop
Used drive : Optiarc DVD RW AD-5240S Adapter: 1 ID: 1
Read mode : SecureUtilize accurate stream : YesDefeat audio cache : YesMake use of C2 pointers : No
Read offset correction : 48Overread into Lead-In and Lead-Out : NoFill up missing offset samples with silence : YesDelete leading and trailing silent blocks : NoNull samples used in CRC calculations : YesUsed interface : Native Win32 interface for Win NT & 2000Gap handling : Appended to previous track
Used output format : User Defined EncoderSelected bitrate : 768 kBit/sQuality : HighAdd ID3 tag : NoCommand line compressor : C:\Program Files (x86)\Exact Audio Copy\FLAC\FLAC.EXEAdditional command line options : -6 -V -T "ARTIST=%artist%" -T "TITLE=%title%" -T "ALBUM=%albumtitle%" -T "DATE=%year%" -T "TRACKNUMBER=%tracknr%" -T "GENRE=%genre%" -T "COMMENT=%comment%" -T "BAND=%albuminterpret%" -T "ALBUMARTIST=%albuminterpret%" -T "COMPOSER=%composer%" %haslyrics%--tag-from-file=LYRICS="%lyricsfile%"%haslyrics% -T "DISCNUMBER=%cdnumber%" -T "TOTALDISCS=%totalcds%" -T "TOTALTRACKS=%numtracks%" %hascover%--picture="%coverfile%"%hascover% %source% -o %dest%
TOC of the extracted CD
Track | Start | Length | Start sector | End sector --------------------------------------------------------- 1 | 0:00.00 | 6:01.54 | 0 | 27128 2 | 6:01.54 | 4:27.25 | 27129 | 47178 3 | 10:29.04 | 4:32.74 | 47179 | 67652 4 | 15:02.03 | 5:23.31 | 67653 | 91908 5 | 20:25.34 | 3:43.74 | 91909 | 108707 6 | 24:09.33 | 4:44.73 | 108708 | 130080 7 | 28:54.31 | 6:28.19 | 130081 | 159199 8 | 35:22.50 | 5:42.41 | 159200 | 184890 9 | 41:05.16 | 4:06.19 | 184891 | 203359 10 | 45:11.35 | 5:07.68 | 203360 | 226452
Track 1
Filename E:\Zen And St. Semelia - Trip Hop 1999 (CD)\01. Zen And St. Semelia - Half Asleep (Dream Vox Trip Mix).wav
Pre-gap length 0:00:02.00
Peak level 94.0 % Extraction speed 2.4 X Track quality 100.0 % Test CRC 3C447A48 Copy CRC 3C447A48 Accurately ripped (confidence 1) [0BC10EB4] (AR v1) Copy OK
Track 2
Filename E:\Zen And St. Semelia - Trip Hop 1999 (CD)\02. Zen And St. Semelia - Go Ahead London (Urban Trip Mix).wav
Pre-gap length 0:00:02.23
Peak level 75.1 % Extraction speed 2.7 X Track quality 100.0 % Test CRC 84DD7420 Copy CRC 84DD7420 Accurately ripped (confidence 1) [04D15B59] (AR v1) Copy OK
Track 3
Filename E:\Zen And St. Semelia - Trip Hop 1999 (CD)\03. Zen And St. Semelia - Dreaded Weed (Skank Trip Mix).wav
Pre-gap length 0:00:02.24
Peak level 99.7 % Extraction speed 2.9 X Track quality 100.0 % Test CRC 2E87E91F Copy CRC 2E87E91F Accurately ripped (confidence 2) [41E2FB74] (AR v1) Copy OK
Track 4
Filename E:\Zen And St. Semelia - Trip Hop 1999 (CD)\04. Zen And St. Semelia - Lost It (Urban Trip Mix).wav
Pre-gap length 0:00:02.23
Peak level 99.7 % Extraction speed 3.2 X Track quality 100.0 % Test CRC 64BAA772 Copy CRC 64BAA772 Accurately ripped (confidence 2) [D711679F] (AR v1) Copy OK
Track 5
Filename E:\Zen And St. Semelia - Trip Hop 1999 (CD)\05. Zen And St. Semelia - Moleish Mind (Trumpet Trip Mix).wav
Pre-gap length 0:00:02.23
Peak level 90.6 % Extraction speed 3.3 X Track quality 100.0 % Test CRC 09B96DFF Copy CRC 09B96DFF Accurately ripped (confidence 2) [1522EE82] (AR v1) Copy OK
Track 6
Filename E:\Zen And St. Semelia - Trip Hop 1999 (CD)\06. Zen And St. Semelia - Dealing With Madness (Heavy Chill Trip Mix).wav
Pre-gap length 0:00:02.23
Peak level 79.1 % Extraction speed 3.6 X Track quality 100.0 % Test CRC 33255CE6 Copy CRC 33255CE6 Accurately ripped (confidence 2) [B85AB689] (AR v1) Copy OK
Track 7
Filename E:\Zen And St. Semelia - Trip Hop 1999 (CD)\07. Zen And St. Semelia - Just Feel It (House Trip Mix).wav
Pre-gap length 0:00:02.24
Peak level 95.8 % Extraction speed 3.9 X Track quality 100.0 % Test CRC 89A6E078 Copy CRC 89A6E078 Accurately ripped (confidence 2) [3A5718BF] (AR v1) Copy OK
Track 8
Filename E:\Zen And St. Semelia - Trip Hop 1999 (CD)\08. Zen And St. Semelia - Stupid Dope Fresh (Heavy Chill Trip Mix).wav
Pre-gap length 0:00:02.23
Peak level 71.5 % Extraction speed 4.1 X Track quality 100.0 % Test CRC 27161DE6 Copy CRC 27161DE6 Accurately ripped (confidence 2) [7380A84F] (AR v1) Copy OK
Track 9
Filename E:\Zen And St. Semelia - Trip Hop 1999 (CD)\09. Zen And St. Semelia - On The Kutt (Scratch Trip Mix).wav
Pre-gap length 0:00:02.24
Peak level 71.0 % Extraction speed 4.1 X Track quality 100.0 % Test CRC F5286A97 Copy CRC F5286A97 Accurately ripped (confidence 1) [48C2838B] (AR v1) Copy OK
Track 10
Filename E:\Zen And St. Semelia - Trip Hop 1999 (CD)\10. Zen And St. Semelia - Kool In The Shade (Chill Trip Mix).wav
Pre-gap length 0:00:02.23
Peak level 87.6 % Extraction speed 4.4 X Track quality 100.0 % Test CRC FF66E642 Copy CRC FF66E642 Accurately ripped (confidence 1) [E2889DB2] (AR v1) Copy OK
All tracks accurately ripped
No errors occurred
End of status report
---- CUETools DB Plugin V2.1.6
[CTDB TOCID: DRQ_KsgQ0tb875m7GW_oqevNse8-] foundSubmit result: DRQ_KsgQ0tb875m7GW_oqevNse8- has been confirmedTrack | CTDB Status 1 | (2/2) Accurately ripped 2 | (2/2) Accurately ripped 3 | (2/2) Accurately ripped 4 | (2/2) Accurately ripped 5 | (2/2) Accurately ripped 6 | (2/2) Accurately ripped 7 | (2/2) Accurately ripped 8 | (2/2) Accurately ripped 9 | (2/2) Accurately ripped 10 | (2/2) Accurately ripped
==== Log checksum 6040B3DD236C24FD38445D0681CBA01ED299BA5E80685661FCFFF3361EA36E32 ====

Содержание индексной карты (.CUE)

REM DATE 1999REM DISCID 760BCB0AREM COMMENT "ExactAudioCopy v1.5"PERFORMER "Zen And St. Semelia"TITLE "Trip Hop"REM COMPOSER ""FILE "Range.wav" WAVE  TRACK 01 AUDIO    TITLE "Half Asleep (Dream Vox Trip Mix)"    PERFORMER "Zen And St. Semelia"    REM COMPOSER ""    INDEX 01 00:00:00  TRACK 02 AUDIO    TITLE "Go Ahead London (Urban Trip Mix)"    PERFORMER "Zen And St. Semelia"    REM COMPOSER ""    INDEX 00 05:59:31    INDEX 01 06:01:54  TRACK 03 AUDIO    TITLE "Dreaded Weed (Skank Trip Mix)"    PERFORMER "Zen And St. Semelia"    REM COMPOSER ""    INDEX 00 10:26:55    INDEX 01 10:29:04  TRACK 04 AUDIO    TITLE "Lost It (Urban Trip Mix)"    PERFORMER "Zen And St. Semelia"    REM COMPOSER ""    INDEX 00 14:59:55    INDEX 01 15:02:03  TRACK 05 AUDIO    TITLE "Moleish Mind (Trumpet Trip Mix)"    PERFORMER "Zen And St. Semelia"    REM COMPOSER ""    INDEX 00 20:23:11    INDEX 01 20:25:34  TRACK 06 AUDIO    TITLE "Dealing With Madness (Heavy Chill Trip Mix)"    PERFORMER "Zen And St. Semelia"    REM COMPOSER ""    INDEX 00 24:07:10    INDEX 01 24:09:33  TRACK 07 AUDIO    TITLE "Just Feel It (House Trip Mix)"    PERFORMER "Zen And St. Semelia"    REM COMPOSER ""    INDEX 00 28:52:07    INDEX 01 28:54:31  TRACK 08 AUDIO    TITLE "Stupid Dope Fresh (Heavy Chill Trip Mix)"    PERFORMER "Zen And St. Semelia"    REM COMPOSER ""    INDEX 00 35:20:27    INDEX 01 35:22:50  TRACK 09 AUDIO    TITLE "On The Kutt (Scratch Trip Mix)"    PERFORMER "Zen And St. Semelia"    REM COMPOSER ""    INDEX 00 41:02:67    INDEX 01 41:05:16  TRACK 10 AUDIO    TITLE "Kool In The Shade (Chill Trip Mix)"    PERFORMER "Zen And St. Semelia"    REM COMPOSER ""    INDEX 00 45:09:12    INDEX 01 45:11:35

Лог проверки качества

-----------------------
DON'T MODIFY THIS FILE
-----------------------
PERFORMER: auCDtect Task Manager, ver. 1.6.0 RC1 build 1.6.0.1Copyright (c) 2008-2010 y-soft. All rights reservedhttp://y-soft.org
ANALYZER: auCDtect: CD records authenticity detector, version 0.8.2Copyright (c) 2004 Oleg Berngardt. All rights reserved.Copyright (c) 2004 Alexander Djourik. All rights reserved.
FILE: 10. Zen And St. Semelia - Kool In The Shade (Chill Trip Mix).flac Size: 30518192 Hash: F920959B6366491C89C4133CA59EF9CA Accuracy: -m0 Conclusion: CDDA 100% Signature: FA1C1E13C335C652ED7580BB43C5D89719B5985CFILE: 09. Zen And St. Semelia - On The Kutt (Scratch Trip Mix).flac Size: 27469317 Hash: A416214E23BBBFECE55B78A79C68EE00 Accuracy: -m0 Conclusion: CDDA 100% Signature: 8FA321682D6AAEC6705E77A24F2E88855F3BCB3CFILE: 08. Zen And St. Semelia - Stupid Dope Fresh (Heavy Chill Trip Mix).flac Size: 35733956 Hash: A6BAEE096BBE0375BBD28FB35D366AA0 Accuracy: -m0 Conclusion: CDDA 100% Signature: D0D99EC7CEEF31C430262752E28E73350C2A2ED9FILE: 07. Zen And St. Semelia - Just Feel It (House Trip Mix).flac Size: 41400954 Hash: F1859022DD889B99C42D6C34F9C34C0C Accuracy: -m0 Conclusion: CDDA 100% Signature: 39615A58C795A36975FC04748029F4A34F48EF2AFILE: 06. Zen And St. Semelia - Dealing With Madness (Heavy Chill Trip Mix).flac Size: 22076175 Hash: AFCBC1CE1827B6A8C50E413D3D08C2AF Accuracy: -m0 Conclusion: CDDA 100% Signature: E64D5376F0E0AA5C35F74651F69D8AC18D94227DFILE: 05. Zen And St. Semelia - Moleish Mind (Trumpet Trip Mix).flac Size: 20029809 Hash: B4986BDA8B19F6AA8C91CC7A5A6CBFF3 Accuracy: -m0 Conclusion: CDDA 100% Signature: 766E2D79303292F2ADCC53224633BB04E769F2AEFILE: 04. Zen And St. Semelia - Lost It (Urban Trip Mix).flac Size: 31844297 Hash: 288CE7160729A317AE4B105761CA8B24 Accuracy: -m0 Conclusion: CDDA 100% Signature: E9031A7856959D327EACE294A85DE8EB24506D1BFILE: 03. Zen And St. Semelia - Dreaded Weed (Skank Trip Mix).flac Size: 24675473 Hash: 9C7682A82B7A53452B87AB9A6FA1C965 Accuracy: -m0 Conclusion: CDDA 100% Signature: BF2F067A0A99C66EA6D5B7CE02352B94C1A6AD25FILE: 02. Zen And St. Semelia - Go Ahead London (Urban Trip Mix).flac Size: 28560208 Hash: EB66C9F9E81B86C1176EA79337B7366E Accuracy: -m0 Conclusion: CDDA 100% Signature: 2E385DFDA50C2589A33CC1AE793BC9AF842F0C8BFILE: 01. Zen And St. Semelia - Half Asleep (Dream Vox Trip Mix).flac Size: 36557813 Hash: FBAA17F29954B047EB8CC55D6108B7E9 Accuracy: -m0 Conclusion: CDDA 100% Signature: 4BCE9B0E7B4109C73B8163F94D11C26CD377E117
Доп. информация: Discogs
[protorrent.xyz]_t-5870596
Torrent: Registered ·  [ 2020-03-30 22:20 ] ·  0f1867fca299c585166ad28e19050565df121d95

13 KB

Status: checked
Completed: 1 times
Size: 285 MB
Rating: 
(Votes: 0)
Say thanks: 0  Thanks
 
Похожие темы
[Profile] [PM]
Display posts from previous:    
Reply to topic

The time now is: Today 13:22

All times are GMT + 7 Hours



You cannot post new topics in this forum
You cannot reply to topics in this forum
You cannot edit your posts in this forum
You cannot delete your posts in this forum
You cannot vote in polls in this forum
You cannot attach files in this forum
You can download files in this forum