Register · 
Username: Password:
 ·  Forgot password?

(Ambient / Trip-hop) [CD / WEB] Arms and Sleepers (w Sun Glitters) - Дискография (13 альбомов, 13 EP, 8 синглов), 2006-2020, FLAC (image +.cue, tracks), lossless

Reply to topic
DL-List and Torrent activity [Update пиров]
Size:  5.65 GB   |    Registered:  2 months 6 days   |    Completed:  0 times

Seeder not seen: Never

 
   
 
 
 
Author Message

ANTON1404 ®

Gender:

Longevity: 6 years 8 months

Posts: 20654

Post 30-Mar-2020 10:05

[Quote]

Arms and Sleepers Жанр: Ambient / Trip-Hop
Год издания: 2006-2020
Страна: US
Битрейт аудио: lossless
Продолжительность: 15:25:10
Наличие сканов в содержимом раздачи: нет
Albums

2007 - Black Paris 86 (48:04)

Издатель (лейбл): Expect Candy
Номер по каталогу: EXC 002
Аудиокодек: FLAC (*.flac)
Тип рипа: image+.cue
Источник (релизер): собственный рип
Треклист:
01. Greetings From Tokyo [2:42]
02. A Mission To Prague [5:18]
03. Lausanne [4:20]
04. Black Paris 86 [5:12]
05. Seems (If Ever) [4:46]
06. 71 Fragments Of A Chronology Of Chance [4:41]
07. Warm [4:03]
08. I Was A Climber [1:34]
09. Butterflycatcher [3:48]
10. Like A Typewriter From A Moving Train [1:33]
11. Rooftops/Lanterns [4:47]
12. We're All Paris Now (Pt. 3) [5:19]

Отчёт EAC

Exact Audio Copy V1.3 from 2. September 2016
Отчёт EAC об извлечении, выполненном 3. июня 2017, 15:50
Arms and Sleepers / Black Paris 86
Дисковод: ASUS BW-12B1ST Adapter: 1 ID: 0
Режим чтения : ДостоверностьИспользование точного потока : ДаОтключение кэша аудио : ДаИспользование указателей C2 : Нет
Коррекция смещения при чтении : 6Способность читать области Lead-in и Lead-out : НетЗаполнение пропущенных сэмплов тишиной : ДаУдаление блоков с тишиной в начале и конце : НетПри вычислениях CRC использовались нулевые сэмплы : ДаИнтерфейс : Встроенный Win32-интерфейс для Win NT/2000
Выходной формат : Внутренние WAV-операцииФормат сэмплов : 44.100 Гц; 16 бит; стерео
TOC извлечённого CD
Трек | Старт | Длительность | Начальный сектор | Конечный сектор --------------------------------------------------------------------- 1 | 0:00.00 | 2:41.42 | 0 | 12116 2 | 2:41.42 | 5:18.35 | 12117 | 36001 3 | 8:00.02 | 4:20.06 | 36002 | 55507 4 | 12:20.08 | 5:12.21 | 55508 | 78928 5 | 17:32.29 | 4:46.24 | 78929 | 100402 6 | 22:18.53 | 4:41.24 | 100403 | 121501 7 | 27:00.02 | 4:03.36 | 121502 | 139762 8 | 31:03.38 | 1:34.31 | 139763 | 146843 9 | 32:37.69 | 3:48.14 | 146844 | 163957 10 | 36:26.08 | 1:32.40 | 163958 | 170897 11 | 37:58.48 | 4:46.44 | 170898 | 192391 12 | 42:45.17 | 5:19.13 | 192392 | 216329
Характеристики диапазона извлечения и сообщения об ошибках
Выбранный диапазон
Имя файла D:\EAC\Evgenius1986\Arms and Sleepers - 2007 - Black Paris 86 (Expect Candy - EXC 002)\Arms and Sleepers - 2007 - Black Paris 86.wav
Пиковый уровень 99.9 % Скорость извлечения 6.7 X Качество диапазона 99.9 % CRC теста B82DF3CA CRC копии B82DF3CA Копирование... OK
Ошибок не произошло
AccurateRip: сводка
Трек 1 : извлечено точно (доверие 2) [2F56F89B] (AR v2)Трек 2 : извлечено точно (доверие 2) [A575003E] (AR v2)Трек 3 : извлечено точно (доверие 2) [0F1B4169] (AR v2)Трек 4 : извлечено точно (доверие 2) [3C194332] (AR v2)Трек 5 : извлечено точно (доверие 2) [8BA1FCD0] (AR v2)Трек 6 : извлечено точно (доверие 2) [035D4E60] (AR v2)Трек 7 : извлечено точно (доверие 2) [5559078D] (AR v2)Трек 8 : извлечено точно (доверие 2) [DD1BAB5F] (AR v2)Трек 9 : извлечено точно (доверие 2) [13589FB9] (AR v2)Трек 10 : извлечено точно (доверие 2) [0EBED653] (AR v2)Трек 11 : извлечено точно (доверие 2) [5261CCC0] (AR v2)Трек 12 : извлечено точно (доверие 2) [DD898F0F] (AR v2)
Все треки извлечены точно
Конец отчёта
---- CUETools DB Plugin V2.1.6
[CTDB TOCID: 5o5jgiStkebTKtlr0k3mB5LlSyU-] foundSubmit result: 5o5jgiStkebTKtlr0k3mB5LlSyU- has been confirmedTrack | CTDB Status 1 | (1/1) Accurately ripped 2 | (1/1) Accurately ripped 3 | (1/1) Accurately ripped 4 | (1/1) Accurately ripped 5 | (1/1) Accurately ripped 6 | (1/1) Accurately ripped 7 | (1/1) Accurately ripped 8 | (1/1) Accurately ripped 9 | (1/1) Accurately ripped 10 | (1/1) Accurately ripped 11 | (1/1) Accurately ripped 12 | (1/1) Accurately ripped
==== Контрольная сумма отчёта 35BE9F596820E11474E2DC7B2326EA8B1949C08087C9DCEE60CDE69EB7D09D74 ====

CUE

REM GENRE Trip-Hop
REM DATE 2007
REM DISCID A30B440C
REM COMMENT "ExactAudioCopy v1.3"
PERFORMER "Arms and Sleepers"
TITLE "Black Paris 86"
REM COMPOSER ""
FILE "Arms and Sleepers - 2007 - Black Paris 86.flac" WAVE
TRACK 01 AUDIO
TITLE "Greetings From Tokyo"
PERFORMER "Arms and Sleepers"
REM COMPOSER ""
INDEX 01 00:00:00
TRACK 02 AUDIO
TITLE "A Mission to Prague"
PERFORMER "Arms and Sleepers"
REM COMPOSER ""
INDEX 00 02:39:20
INDEX 01 02:41:42
TRACK 03 AUDIO
TITLE "Lausanne"
PERFORMER "Arms and Sleepers"
REM COMPOSER ""
INDEX 00 07:57:16
INDEX 01 08:00:02
TRACK 04 AUDIO
TITLE "Black Paris 86"
PERFORMER "Arms and Sleepers"
REM COMPOSER ""
INDEX 00 12:16:52
INDEX 01 12:20:08
TRACK 05 AUDIO
TITLE "Seems (If Ever)"
PERFORMER "Arms and Sleepers"
REM COMPOSER ""
INDEX 00 17:30:54
INDEX 01 17:32:29
TRACK 06 AUDIO
TITLE "71 Fragments of a Chronology of Chance"
PERFORMER "Arms and Sleepers"
REM COMPOSER ""
INDEX 01 22:18:53
TRACK 07 AUDIO
TITLE "Warm"
PERFORMER "Arms and Sleepers"
REM COMPOSER ""
INDEX 00 26:57:17
INDEX 01 27:00:02
TRACK 08 AUDIO
TITLE "I Was a Climber"
PERFORMER "Arms and Sleepers"
REM COMPOSER ""
INDEX 01 31:03:38
TRACK 09 AUDIO
TITLE "Butterflycatcher"
PERFORMER "Arms and Sleepers"
REM COMPOSER ""
INDEX 00 32:33:62
INDEX 01 32:37:69
TRACK 10 AUDIO
TITLE "Like a Typewriter From a Moving Train"
PERFORMER "Arms and Sleepers"
REM COMPOSER ""
INDEX 00 36:24:27
INDEX 01 36:26:08
TRACK 11 AUDIO
TITLE "Rooftops/Lanterns"
PERFORMER "Arms and Sleepers"
REM COMPOSER ""
INDEX 00 37:55:57
INDEX 01 37:58:48
TRACK 12 AUDIO
TITLE "We’re All Paris Now (Pt. 3)"
PERFORMER "Arms and Sleepers"
REM COMPOSER ""
INDEX 01 42:45:17

2009 - Matador (41:01)

Издатель (лейбл): Expect Candy
Номер по каталогу: EXC 007
Аудиокодек: FLAC (*.flac)
Тип рипа: image+.cue
Источник (релизер): собственный рип
Треклист:
01. Orly [1:06]
02. Matador [5:10]
03. The Architekt [4:49]
04. Twentynine Palms [5:38]
05. Helvetica [7:12]
06. The International [2:38]
07. Simone [3:13]
08. Kino [5:12]
09. Words Are For Sleeping [1:20]
10. The Paramour [4:38]

Лог проверки качества

Exact Audio Copy V1.3 from 2. September 2016
Отчёт EAC об извлечении, выполненном 3. июня 2017, 16:50
Arms and Sleepers / Matador
Дисковод: ASUS BW-12B1ST Adapter: 1 ID: 0
Режим чтения : ДостоверностьИспользование точного потока : ДаОтключение кэша аудио : ДаИспользование указателей C2 : Нет
Коррекция смещения при чтении : 6Способность читать области Lead-in и Lead-out : НетЗаполнение пропущенных сэмплов тишиной : ДаУдаление блоков с тишиной в начале и конце : НетПри вычислениях CRC использовались нулевые сэмплы : ДаИнтерфейс : Встроенный Win32-интерфейс для Win NT/2000
Выходной формат : Внутренние WAV-операцииФормат сэмплов : 44.100 Гц; 16 бит; стерео
TOC извлечённого CD
Трек | Старт | Длительность | Начальный сектор | Конечный сектор --------------------------------------------------------------------- 1 | 0:00.00 | 1:06.46 | 0 | 4995 2 | 1:06.46 | 5:10.20 | 4996 | 28265 3 | 6:16.66 | 4:49.53 | 28266 | 49993 4 | 11:06.44 | 5:38.35 | 49994 | 75378 5 | 16:45.04 | 7:12.19 | 75379 | 107797 6 | 23:57.23 | 2:38.68 | 107798 | 119715 7 | 26:36.16 | 3:13.02 | 119716 | 134192 8 | 29:49.18 | 5:12.62 | 134193 | 157654 9 | 35:02.05 | 1:20.16 | 157655 | 163670 10 | 36:22.21 | 4:38.72 | 163671 | 184592 11 | 41:01.18 | 2:30.20 | 184593 | 195862
Характеристики диапазона извлечения и сообщения об ошибках
Выбранный диапазон
Имя файла D:\EAC\Evgenius1986\Arms and Sleepers - 2009 - Matador (Expect Candy - EXC 007)\Arms and Sleepers - 2009 - Matador.wav
Пиковый уровень 98.9 % Скорость извлечения 3.0 X Качество диапазона 99.9 % CRC теста 0F774BF0 CRC копии 0F774BF0 Копирование... OK
Ошибок не произошло
AccurateRip: сводка
Трек 1 : извлечено точно (доверие 2) [F9368F28] (AR v2)Трек 2 : извлечено точно (доверие 2) [236FE156] (AR v2)Трек 3 : извлечено точно (доверие 2) [61D7A1E2] (AR v2)Трек 4 : извлечено точно (доверие 2) [C5675B05] (AR v2)Трек 5 : извлечено точно (доверие 2) [7DB72236] (AR v2)Трек 6 : извлечено точно (доверие 2) [F1F49412] (AR v2)Трек 7 : извлечено точно (доверие 2) [894EC7DE] (AR v2)Трек 8 : извлечено точно (доверие 2) [B22424E9] (AR v2)Трек 9 : извлечено точно (доверие 2) [27D5AF21] (AR v2)Трек 10 : извлечено точно (доверие 2) [52FBD5C2] (AR v2)Трек 11 : извлечено точно (доверие 2) [0B149BD6] (AR v2)
Все треки извлечены точно
Конец отчёта
---- CUETools DB Plugin V2.1.6
[CTDB TOCID: 4u4YAPL9l4asHZltobihacyWWag-] foundSubmit result: 4u4YAPL9l4asHZltobihacyWWag- has been confirmedTrack | CTDB Status 1 | (3/3) Accurately ripped 2 | (3/3) Accurately ripped 3 | (3/3) Accurately ripped 4 | (3/3) Accurately ripped 5 | (3/3) Accurately ripped 6 | (3/3) Accurately ripped 7 | (3/3) Accurately ripped 8 | (3/3) Accurately ripped 9 | (3/3) Accurately ripped 10 | (3/3) Accurately ripped 11 | (3/3) Accurately ripped
==== Контрольная сумма отчёта 269A64FE3394AF31BF7F636A893F56CA495305A5493DF924760835442DA5C2B5 ====

CUE

REM GENRE Trip-Hop
REM DATE 2009
REM DISCID 9D0A330B
REM COMMENT "ExactAudioCopy v1.3"
PERFORMER "Arms and Sleepers"
TITLE "Matador"
REM COMPOSER ""
FILE "Arms and Sleepers - 2009 - Matador.flac" WAVE
TRACK 01 AUDIO
TITLE "Orly"
PERFORMER "Arms and Sleepers"
REM COMPOSER ""
ISRC DEGY60900044
INDEX 01 00:00:00
TRACK 02 AUDIO
TITLE "Matador"
PERFORMER "Arms and Sleepers"
REM COMPOSER ""
ISRC DEGY60900045
INDEX 01 01:06:46
TRACK 03 AUDIO
TITLE "The Architekt"
PERFORMER "Arms and Sleepers"
REM COMPOSER ""
ISRC DEGY60900046
INDEX 00 06:14:11
INDEX 01 06:16:66
TRACK 04 AUDIO
TITLE "Twentynine Palms"
PERFORMER "Arms and Sleepers"
REM COMPOSER ""
ISRC DEGY60900047
INDEX 00 11:02:07
INDEX 01 11:06:44
TRACK 05 AUDIO
TITLE "Helvetica"
PERFORMER "Arms and Sleepers"
REM COMPOSER ""
ISRC DEGY60900048
INDEX 00 16:43:20
INDEX 01 16:45:04
TRACK 06 AUDIO
TITLE "The International"
PERFORMER "Arms and Sleepers"
REM COMPOSER ""
ISRC DEGY60900049
INDEX 01 23:57:23
TRACK 07 AUDIO
TITLE "Simone"
PERFORMER "Arms and Sleepers"
REM COMPOSER ""
ISRC DEGY60900050
INDEX 00 26:33:42
INDEX 01 26:36:16
TRACK 08 AUDIO
TITLE "Kino"
PERFORMER "Arms and Sleepers"
REM COMPOSER ""
ISRC DEGY60900051
INDEX 01 29:49:18
TRACK 09 AUDIO
TITLE "Words Are for Sleeping"
PERFORMER "Arms and Sleepers"
REM COMPOSER ""
ISRC DEGY60900052
INDEX 01 35:02:05
TRACK 10 AUDIO
TITLE "The Paramour"
PERFORMER "Arms and Sleepers"
REM COMPOSER ""
ISRC DEGY60900053
INDEX 00 36:20:34
INDEX 01 36:22:21
TRACK 11 AUDIO
TITLE "L-Orizzont"
PERFORMER "Arms and Sleepers"
REM COMPOSER ""
ISRC DEGY60900054
INDEX 00 40:55:63
INDEX 01 41:01:18

2010 - Matador Remixed [web] (44:18)

Издатель (лейбл): Arms and Sleepers
Аудиокодек: FLAC (*.flac)
Тип рипа: tracks
Источник (релизер): Arms and Sleepers shop
Треклист:
01. Matador (Uzi & Ari Remix) [5:49]
02. The Architekt (Lymbyc Systym Remix) [4:04]
03. Twentynine Palms (Nolens Volens Remix) [4:57]
04. Simone (Amanda Rogers Remix) [3:25]
05. Helvetica (The American Dollar Remix) [3:17]
06. The Architekt (The Consulate General Vs Boy In Static Remix) [4:32]
07. The International (Arms And Sleepers Remix) [5:38]
08. Kino (Thisquietarmy Remix) [5:31]
09. The Architekt (Bigadiga Remix) [4:03]
10. The Paramour (Elika Remix) [3:03]

Лог проверки качества

Lossless Audio Checker 2.0.7 logfile from Sunday 29 March 2020 09:44:16 PM
File: F:\Мои Раздачи\Arms and Sleepers\Albums\2010 - Matador Remixed [web]\01 - Matador (Uzi & Ari remix).flacResult: Clean
File: F:\Мои Раздачи\Arms and Sleepers\Albums\2010 - Matador Remixed [web]\02 - The Architekt (Lymbyc Systym remix).flacResult: Clean
File: F:\Мои Раздачи\Arms and Sleepers\Albums\2010 - Matador Remixed [web]\03 - Twentynine Palms (Nolens Volens remix).flacResult: Clean
File: F:\Мои Раздачи\Arms and Sleepers\Albums\2010 - Matador Remixed [web]\04 - Simone (Amanda Rogers remix).flacResult: Clean
File: F:\Мои Раздачи\Arms and Sleepers\Albums\2010 - Matador Remixed [web]\05 - Helvetica (The American Dollar remix).flacResult: Clean
File: F:\Мои Раздачи\Arms and Sleepers\Albums\2010 - Matador Remixed [web]\06 - The Architekt (The Consulate General vs. Boy in Static remix).flacResult: Clean
File: F:\Мои Раздачи\Arms and Sleepers\Albums\2010 - Matador Remixed [web]\07 - The International (Arms and Sleepers remix).flacResult: Clean
File: F:\Мои Раздачи\Arms and Sleepers\Albums\2010 - Matador Remixed [web]\08 - Kino (Thisquietarmy remix).flacResult: Clean
File: F:\Мои Раздачи\Arms and Sleepers\Albums\2010 - Matador Remixed [web]\09 - The Architekt (Bigadiga remix).flacResult: Clean
File: F:\Мои Раздачи\Arms and Sleepers\Albums\2010 - Matador Remixed [web]\10 - The Paramour (Elika remix).flacResult: Clean

2011 - Nostalgia for the Absolute [web] (27:37)

Издатель (лейбл): Arms and Sleepers
Аудиокодек: FLAC (*.flac)
Тип рипа: tracks
Источник (релизер): Arms and Sleepers shop
01. Crash [02:40]
02. Lisbon [02:40]
03. Croix Rouge [01:35]
04. Lovers Arctic [01:35]
05. Clayton [01:39]
06. The Dying Animal [02:43]
07. Nova [01:10]
08. Rondo [02:29]
09. Tonight We're Thinking Of You [02:05]
10. The Hidden Sea [02:08]
11. Quiet Camera [01:18]
12. Night [02:23]

Лог проверки качества

Lossless Audio Checker 2.0.7 logfile from Sunday 29 March 2020 09:47:09 PM
File: F:\Мои Раздачи\Arms and Sleepers\Albums\2011 - Nostalgia for the Absolute [web]\01 - Crash.flacResult: Upsampled
File: F:\Мои Раздачи\Arms and Sleepers\Albums\2011 - Nostalgia for the Absolute [web]\02 - Lisbon.flacResult: Upsampled
File: F:\Мои Раздачи\Arms and Sleepers\Albums\2011 - Nostalgia for the Absolute [web]\03 - Croix Rouge.flacResult: Upsampled
File: F:\Мои Раздачи\Arms and Sleepers\Albums\2011 - Nostalgia for the Absolute [web]\04 - Lovers Arctic.flacResult: Upsampled
File: F:\Мои Раздачи\Arms and Sleepers\Albums\2011 - Nostalgia for the Absolute [web]\05 - Clayton.flacResult: Upsampled
File: F:\Мои Раздачи\Arms and Sleepers\Albums\2011 - Nostalgia for the Absolute [web]\06 - The Dying Animal.flacResult: Upsampled
File: F:\Мои Раздачи\Arms and Sleepers\Albums\2011 - Nostalgia for the Absolute [web]\07 - Nova.flacResult: Clean
File: F:\Мои Раздачи\Arms and Sleepers\Albums\2011 - Nostalgia for the Absolute [web]\08 - Rondo.flacResult: Upsampled
File: F:\Мои Раздачи\Arms and Sleepers\Albums\2011 - Nostalgia for the Absolute [web]\09 - Tonight We're Thinking of You.flacResult: Upsampled
File: F:\Мои Раздачи\Arms and Sleepers\Albums\2011 - Nostalgia for the Absolute [web]\10 - The Hidden Sea.flacResult: Upsampled
File: F:\Мои Раздачи\Arms and Sleepers\Albums\2011 - Nostalgia for the Absolute [web]\11 - Quiet Camera.flacResult: Upsampled
File: F:\Мои Раздачи\Arms and Sleepers\Albums\2011 - Nostalgia for the Absolute [web]\12 - Night.flacResult: Upsampled

2011 - The Organ Hearts (41:05)

Издатель (лейбл): Expect Candy
Номер по каталогу: EXC 010
Аудиокодек: FLAC (*.flac)
Тип рипа: image+.cue
Источник (релизер): собственный рип
Треклист:
01. Kepesh [5:28]
02. Tusk [4:56]
03. I Sing The Body Electric [5:24]
04. The Afternoon Child [1:50]
05. A Smile In Sofia [3:32]
06. Antwerp [2:42]
07. Serie Noire [0:54]
08. Reprise [2:54]
09. Yesterday's Child [0:40]
10. Kiss Tomorrow Goodbye [5:34]
11. Atelier [2:15]
12. Airport Blues [4:54]

Лог проверки качества

Exact Audio Copy V1.3 from 2. September 2016
Отчёт EAC об извлечении, выполненном 3. июня 2017, 20:10
Arms and Sleepers / The Organ Hearts
Дисковод: ASUS BW-12B1ST Adapter: 1 ID: 0
Режим чтения : ДостоверностьИспользование точного потока : ДаОтключение кэша аудио : ДаИспользование указателей C2 : Нет
Коррекция смещения при чтении : 6Способность читать области Lead-in и Lead-out : НетЗаполнение пропущенных сэмплов тишиной : ДаУдаление блоков с тишиной в начале и конце : НетПри вычислениях CRC использовались нулевые сэмплы : ДаИнтерфейс : Встроенный Win32-интерфейс для Win NT/2000
Выходной формат : Внутренние WAV-операцииФормат сэмплов : 44.100 Гц; 16 бит; стерео
TOC извлечённого CD
Трек | Старт | Длительность | Начальный сектор | Конечный сектор --------------------------------------------------------------------- 1 | 0:00.00 | 5:28.45 | 0 | 24644 2 | 5:28.45 | 4:56.25 | 24645 | 46869 3 | 10:24.70 | 5:23.57 | 46870 | 71151 4 | 15:48.52 | 1:50.42 | 71152 | 79443 5 | 17:39.19 | 3:32.31 | 79444 | 95374 6 | 21:11.50 | 2:42.51 | 95375 | 107575 7 | 23:54.26 | 0:53.63 | 107576 | 111613 8 | 24:48.14 | 2:55.00 | 111614 | 124738 9 | 27:43.14 | 0:40.03 | 124739 | 127741 10 | 28:23.17 | 5:33.72 | 127742 | 152788 11 | 33:57.14 | 2:19.08 | 152789 | 163221 12 | 36:16.22 | 4:49.44 | 163222 | 184940
Характеристики диапазона извлечения и сообщения об ошибках
Выбранный диапазон
Имя файла D:\EAC\Evgenius1986\Arms and Sleepers - 2011 - The Organ Hearts (Expect Candy - EXC 010)\Arms and Sleepers - 2011 - The Organ Hearts.wav
Пиковый уровень 96.5 % Скорость извлечения 6.8 X Качество диапазона 100.0 % CRC теста D6CCEC1A CRC копии D6CCEC1A Копирование... OK
Ошибок не произошло
AccurateRip: сводка
Трек 1 : извлечено точно (доверие 2) [E71F4B93] (AR v2)Трек 2 : извлечено точно (доверие 2) [B3F74023] (AR v2)Трек 3 : извлечено точно (доверие 2) [5AC26493] (AR v2)Трек 4 : извлечено точно (доверие 2) [93737FE0] (AR v2)Трек 5 : извлечено точно (доверие 2) [79700D36] (AR v2)Трек 6 : извлечено точно (доверие 2) [2DEDEAF9] (AR v2)Трек 7 : извлечено точно (доверие 2) [2ACE390F] (AR v2)Трек 8 : извлечено точно (доверие 2) [718D00A4] (AR v2)Трек 9 : извлечено точно (доверие 2) [3F75D703] (AR v2)Трек 10 : извлечено точно (доверие 2) [A84FEBAA] (AR v2)Трек 11 : извлечено точно (доверие 2) [4E10523A] (AR v2)Трек 12 : извлечено точно (доверие 2) [3FC458CD] (AR v2)
Все треки извлечены точно
Конец отчёта
---- CUETools DB Plugin V2.1.6
[CTDB TOCID: lOi7e1f0cCxK4O1Ig1iJ9zYH1us-] foundSubmit result: lOi7e1f0cCxK4O1Ig1iJ9zYH1us- has been confirmedTrack | CTDB Status 1 | (1/1) Accurately ripped 2 | (1/1) Accurately ripped 3 | (1/1) Accurately ripped 4 | (1/1) Accurately ripped 5 | (1/1) Accurately ripped 6 | (1/1) Accurately ripped 7 | (1/1) Accurately ripped 8 | (1/1) Accurately ripped 9 | (1/1) Accurately ripped 10 | (1/1) Accurately ripped 11 | (1/1) Accurately ripped 12 | (1/1) Accurately ripped
==== Контрольная сумма отчёта 19445E25E228346B6E9B391D82A466D912AF58777A71C7D087139373D5477590 ====

CUE

REM GENRE Trip-Hop
REM DATE 2011
REM DISCID 9409A10C
REM COMMENT "ExactAudioCopy v1.3"
PERFORMER "Arms and Sleepers"
TITLE "The Organ Hearts"
REM COMPOSER ""
FILE "Arms and Sleepers - 2011 - The Organ Hearts.flac" WAVE
TRACK 01 AUDIO
TITLE "Kepesh"
PERFORMER "Arms and Sleepers"
REM COMPOSER ""
ISRC DEGY61100078
INDEX 01 00:00:00
TRACK 02 AUDIO
TITLE "Tusk"
PERFORMER "Arms and Sleepers"
REM COMPOSER ""
ISRC DEGY61100079
INDEX 00 05:24:45
INDEX 01 05:28:45
TRACK 03 AUDIO
TITLE "I Sing the Body Electric"
PERFORMER "Arms and Sleepers"
REM COMPOSER ""
ISRC DEGY61100080
INDEX 00 10:22:37
INDEX 01 10:24:70
TRACK 04 AUDIO
TITLE "The Afternoon Child"
PERFORMER "Arms and Sleepers"
REM COMPOSER ""
ISRC DEGY61100081
INDEX 00 15:41:63
INDEX 01 15:48:52
TRACK 05 AUDIO
TITLE "A Smile in Sofia"
PERFORMER "Arms and Sleepers"
REM COMPOSER ""
ISRC DEGY61100082
INDEX 01 17:39:19
TRACK 06 AUDIO
TITLE "Antwerp"
PERFORMER "Arms and Sleepers"
REM COMPOSER ""
ISRC DEGY61100083
INDEX 00 21:08:65
INDEX 01 21:11:50
TRACK 07 AUDIO
TITLE "Serie Noire"
PERFORMER "Arms and Sleepers"
REM COMPOSER ""
ISRC DEGY61100084
INDEX 00 23:50:47
INDEX 01 23:54:26
TRACK 08 AUDIO
TITLE "Reprise"
PERFORMER "Arms and Sleepers"
REM COMPOSER ""
ISRC DEGY61100085
INDEX 01 24:48:14
TRACK 09 AUDIO
TITLE "Yesterday’s Child"
PERFORMER "Arms and Sleepers"
REM COMPOSER ""
ISRC DEGY61100086
INDEX 00 27:37:09
INDEX 01 27:43:14
TRACK 10 AUDIO
TITLE "Kiss Tomorrow Goodbye"
PERFORMER "Arms and Sleepers"
REM COMPOSER ""
ISRC DEGY61100087
INDEX 00 28:20:24
INDEX 01 28:23:17
TRACK 11 AUDIO
TITLE "Atelier"
PERFORMER "Arms and Sleepers"
REM COMPOSER ""
ISRC DEGY61100088
INDEX 00 33:52:40
INDEX 01 33:57:14
TRACK 12 AUDIO
TITLE "Airport Blues"
PERFORMER "Arms and Sleepers"
REM COMPOSER ""
ISRC DEGY61100089
INDEX 00 36:09:70
INDEX 01 36:16:22

2014 - Swim Team (34:44)

Издатель (лейбл): Fake Chapter Records
Номер по каталогу: FAKE47
Аудиокодек: FLAC (*.flac)
Тип рипа: image+.cue
Источник (релизер): собственный рип
Треклист:
01. Unbound [03:28]
02. Swim Team [03:44]
03. Hummingbird [03:38]
04. Tiger Tempo [03:35]
05. Mingus Mapps [02:48]
06. Forever Only [01:29]
07. Nobody More Than You [03:33]
08. Ghost Loop [03:00]
09. Hurry Slowly [03:36]
10. Better Living Thru Chemistry [02:36]
11. Tetro [03:12]

Лог проверки качества

Exact Audio Copy V1.3 from 2. September 2016
Отчёт EAC об извлечении, выполненном 3. июня 2017, 20:39
Arms and Sleepers / Swim Team
Дисковод: ASUS BW-12B1ST Adapter: 1 ID: 0
Режим чтения : ДостоверностьИспользование точного потока : ДаОтключение кэша аудио : ДаИспользование указателей C2 : Нет
Коррекция смещения при чтении : 6Способность читать области Lead-in и Lead-out : НетЗаполнение пропущенных сэмплов тишиной : ДаУдаление блоков с тишиной в начале и конце : НетПри вычислениях CRC использовались нулевые сэмплы : ДаИнтерфейс : Встроенный Win32-интерфейс для Win NT/2000
Выходной формат : Внутренние WAV-операцииФормат сэмплов : 44.100 Гц; 16 бит; стерео
TOC извлечённого CD
Трек | Старт | Длительность | Начальный сектор | Конечный сектор --------------------------------------------------------------------- 1 | 0:00.00 | 3:29.34 | 0 | 15708 2 | 3:29.34 | 3:44.44 | 15709 | 32552 3 | 7:14.03 | 3:38.17 | 32553 | 48919 4 | 10:52.20 | 3:35.72 | 48920 | 65116 5 | 14:28.17 | 2:48.47 | 65117 | 77763 6 | 17:16.64 | 1:29.67 | 77764 | 84505 7 | 18:46.56 | 3:33.14 | 84506 | 100494 8 | 22:19.70 | 3:00.69 | 100495 | 114063 9 | 25:20.64 | 3:36.28 | 114064 | 130291 10 | 28:57.17 | 2:36.10 | 130292 | 142001 11 | 31:33.27 | 3:15.35 | 142002 | 156661
Характеристики диапазона извлечения и сообщения об ошибках
Выбранный диапазон
Имя файла D:\EAC\Evgenius1986\Arms and Sleepers - 2014 - Swim Team (Fake Chapter Records - FAKE47)\Arms and Sleepers - 2014 - Swim Team.wav
Пиковый уровень 99.9 % Скорость извлечения 3.0 X Качество диапазона 100.0 % CRC теста D4253EB4 CRC копии D4253EB4 Копирование... OK
Ошибок не произошло
AccurateRip: сводка
Трек 1 отсутствует в базе данныхТрек 2 отсутствует в базе данныхТрек 3 отсутствует в базе данныхТрек 4 отсутствует в базе данныхТрек 5 отсутствует в базе данныхТрек 6 отсутствует в базе данныхТрек 7 отсутствует в базе данныхТрек 8 отсутствует в базе данныхТрек 9 отсутствует в базе данныхТрек 10 отсутствует в базе данныхТрек 11 отсутствует в базе данных
Ни одного трека нет в базе AccurateRip
Конец отчёта
---- CUETools DB Plugin V2.1.6
[CTDB TOCID: NpW1p0gtKsjgcgtosimC4pLXSx4-] foundSubmit result: NpW1p0gtKsjgcgtosimC4pLXSx4- has been confirmedTrack | CTDB Status 1 | (5/5) Accurately ripped 2 | (5/5) Accurately ripped 3 | (5/5) Accurately ripped 4 | (5/5) Accurately ripped 5 | (5/5) Accurately ripped 6 | (5/5) Accurately ripped 7 | (5/5) Accurately ripped 8 | (5/5) Accurately ripped 9 | (5/5) Accurately ripped 10 | (5/5) Accurately ripped 11 | (5/5) Accurately ripped
==== Контрольная сумма отчёта AE5457E203D30373DA8BD33D672A43CF5389B7CFE3C374E6F47AFD81563CB36F ====

CUE

REM GENRE Electronica
REM DATE 2014
REM DISCID 8708280B
REM COMMENT "ExactAudioCopy v1.3"
PERFORMER "Arms and Sleepers"
TITLE "Swim Team"
REM COMPOSER ""
FILE "Arms and Sleepers - 2014 - Swim Team.flac" WAVE
TRACK 01 AUDIO
TITLE "Unbound"
PERFORMER "Arms and Sleepers"
REM COMPOSER ""
INDEX 01 00:00:00
TRACK 02 AUDIO
TITLE "Swim Team"
PERFORMER "Arms and Sleepers"
REM COMPOSER ""
INDEX 00 03:25:57
INDEX 01 03:29:34
TRACK 03 AUDIO
TITLE "Hummingbird"
PERFORMER "Arms and Sleepers"
REM COMPOSER ""
INDEX 00 07:10:31
INDEX 01 07:14:03
TRACK 04 AUDIO
TITLE "Tiger Tempo"
PERFORMER "Arms and Sleepers"
REM COMPOSER ""
INDEX 01 10:52:20
TRACK 05 AUDIO
TITLE "Mingus Mapps"
PERFORMER "Arms and Sleepers"
REM COMPOSER ""
INDEX 00 14:25:19
INDEX 01 14:28:17
TRACK 06 AUDIO
TITLE "Forever Only"
PERFORMER "Arms and Sleepers"
REM COMPOSER ""
INDEX 00 17:14:51
INDEX 01 17:16:64
TRACK 07 AUDIO
TITLE "Nobody More Than You"
PERFORMER "Arms and Sleepers"
REM COMPOSER ""
INDEX 00 18:44:44
INDEX 01 18:46:56
TRACK 08 AUDIO
TITLE "Ghost Loop"
PERFORMER "Arms and Sleepers"
REM COMPOSER ""
INDEX 00 22:15:72
INDEX 01 22:19:70
TRACK 09 AUDIO
TITLE "Hurry Slowly"
PERFORMER "Arms and Sleepers"
REM COMPOSER ""
INDEX 00 25:18:65
INDEX 01 25:20:64
TRACK 10 AUDIO
TITLE "Better Living Thru Chemistry"
PERFORMER "Arms and Sleepers"
REM COMPOSER ""
INDEX 01 28:57:17
TRACK 11 AUDIO
TITLE "Tetro"
PERFORMER "Arms and Sleepers"
REM COMPOSER ""
INDEX 00 31:28:24
INDEX 01 31:33:27

2016 - Swim Team Remixed [web] (57:54)

Издатель (лейбл): Arms and Sleepers
Аудиокодек: FLAC (*.flac)
Тип рипа: tracks
Источник (релизер): kickstarter
Треклист:
01. Swim Team (Himalayan Dalai Lama rmx) [04:43]
02. Tiger Tempo (Polygrim rmx) [04:18]
03. Swim Team (Sun Glitters rmx) [05:08]
04. Hummingbird (Teen Flirt rmx) [04:53]
05. Hurry Slowly (Manatee Commune rmx) [03:33]
06. Swim Team (Shunya rmx) [03:52]
07. Tiger Tempo (9 Theory rmx) [03:54]
08. Hummingbird (Weith rmx) [04:43]
09. Hurry Slowly (Justin Klein rmx) [06:21]
10. Hummingbird x Swim Team (A.M. Architect rmx) [03:58]
11. Hurry Slowly (OpenOptics rmx) [08:03]
12. Forever Only (Blockhead rmx) [04:33]

Лог проверки качества

Lossless Audio Checker 2.0.7 logfile from Sunday 29 March 2020 09:49:27 PM
File: F:\Мои Раздачи\Arms and Sleepers\Albums\2016 - Swim Team Remixed [web]\01 - Swim Team (Himalayan Dalai Lama rmx).flacResult: Clean
File: F:\Мои Раздачи\Arms and Sleepers\Albums\2016 - Swim Team Remixed [web]\02 - Tiger Tempo (Polygrim rmx).flacResult: Clean
File: F:\Мои Раздачи\Arms and Sleepers\Albums\2016 - Swim Team Remixed [web]\03 - Swim Team (Sun Glitters rmx).flacResult: Clean
File: F:\Мои Раздачи\Arms and Sleepers\Albums\2016 - Swim Team Remixed [web]\04 - Hummingbird (Teen Flirt rmx).flacResult: Clean
File: F:\Мои Раздачи\Arms and Sleepers\Albums\2016 - Swim Team Remixed [web]\05 - Hurry Slowly (Manatee Commune rmx).flacResult: Clean
File: F:\Мои Раздачи\Arms and Sleepers\Albums\2016 - Swim Team Remixed [web]\06 - Swim Team (Shunya rmx).flacResult: Clean
File: F:\Мои Раздачи\Arms and Sleepers\Albums\2016 - Swim Team Remixed [web]\07 - Tiger Tempo (9 Theory rmx).flacResult: Clean
File: F:\Мои Раздачи\Arms and Sleepers\Albums\2016 - Swim Team Remixed [web]\08 - Hummingbird (Weith rmx).flacResult: Clean
File: F:\Мои Раздачи\Arms and Sleepers\Albums\2016 - Swim Team Remixed [web]\09 - Hurry Slowly (Justin Klein rmx).flacResult: Clean
File: F:\Мои Раздачи\Arms and Sleepers\Albums\2016 - Swim Team Remixed [web]\10 - Hummingbird x Swim Team (A.M. Architect rmx).flacResult: Clean
File: F:\Мои Раздачи\Arms and Sleepers\Albums\2016 - Swim Team Remixed [web]\11 - Hurry Slowly (OpenOptics rmx).flacResult: Clean
File: F:\Мои Раздачи\Arms and Sleepers\Albums\2016 - Swim Team Remixed [web]\12 - Forever Only (Blockhead rmx).flacResult: Clean

2017 - Life is Everywhere (1:03:39)

Издатель (лейбл): Arms and Sleepers
Номер по каталогу: Self-released
Аудиокодек: FLAC (*.flac)
Тип рипа: image+.cue
Источник (релизер): собственный рип
Треклист:
01. Chicagoland [2:59]
02. Killshot (feat. Airospace) [4:27]
03. Time Will Tell [4:28]
04. Love is Everywhere [2:56]
05. You May Visit The Cosmos [3:36]
06. Fall Asleep When I'm Dead (feat. Airospace) [4:17]
07. Can You [3:24]
08. When The Body [2:03]
09. A Ride to Nowhere (feat Sun Glitters) [2:26]
10. Pan Am [4:44]
11. Man.ana, Man.ana [2:25]
12. Baby [3:35]
13. Comedown Horizon (feat. Airospace) [3:59]
14. Grind Out [1:14]
15. Which Ways [3:46]
16. The Moon (feat. Serengeti) [5:24]
17. My Cairo [1:25]
18. Hollow Body Hold (feat. Serengeti) [4:19]
19. Grand Theft Finale [2:12]

Лог EAC

Exact Audio Copy V1.3 from 2. September 2016
Отчёт EAC об извлечении, выполненном 3. июня 2017, 21:48
Arms and Sleepers / Life is Everywhere
Дисковод: ASUS BW-12B1ST Adapter: 1 ID: 0
Режим чтения : ДостоверностьИспользование точного потока : ДаОтключение кэша аудио : ДаИспользование указателей C2 : Нет
Коррекция смещения при чтении : 6Способность читать области Lead-in и Lead-out : НетЗаполнение пропущенных сэмплов тишиной : ДаУдаление блоков с тишиной в начале и конце : НетПри вычислениях CRC использовались нулевые сэмплы : ДаИнтерфейс : Встроенный Win32-интерфейс для Win NT/2000
Выходной формат : Внутренние WAV-операцииФормат сэмплов : 44.100 Гц; 16 бит; стерео
TOC извлечённого CD
Трек | Старт | Длительность | Начальный сектор | Конечный сектор --------------------------------------------------------------------- 1 | 0:00.00 | 2:58.45 | 0 | 13394 2 | 2:58.45 | 4:26.74 | 13395 | 33418 3 | 7:25.44 | 4:27.68 | 33419 | 53511 4 | 11:53.37 | 2:56.12 | 53512 | 66723 5 | 14:49.49 | 3:35.69 | 66724 | 82917 6 | 18:25.43 | 4:17.04 | 82918 | 102196 7 | 22:42.47 | 3:24.09 | 102197 | 117505 8 | 26:06.56 | 2:02.50 | 117506 | 126705 9 | 28:09.31 | 2:25.49 | 126706 | 137629 10 | 30:35.05 | 4:43.47 | 137630 | 158901 11 | 35:18.52 | 2:24.50 | 158902 | 169751 12 | 37:43.27 | 3:35.25 | 169752 | 185901 13 | 41:18.52 | 3:58.57 | 185902 | 203808 14 | 45:17.34 | 1:14.00 | 203809 | 209358 15 | 46:31.34 | 3:46.32 | 209359 | 226340 16 | 50:17.66 | 5:24.05 | 226341 | 250645 17 | 55:41.71 | 1:25.35 | 250646 | 257055 18 | 57:07.31 | 4:19.13 | 257056 | 276493 19 | 61:26.44 | 2:12.00 | 276494 | 286393
Характеристики диапазона извлечения и сообщения об ошибках
Выбранный диапазон
Имя файла D:\EAC\Evgenius1986\Arms and Sleepers - 2017 - Life is Everywhere\Arms and Sleepers - 2017 - Life is Everywhere.wav
Пиковый уровень 96.6 % Скорость извлечения 3.5 X Качество диапазона 100.0 % CRC теста 75811EEA CRC копии 75811EEA Копирование... OK
Ошибок не произошло
AccurateRip: сводка
Трек 1 отсутствует в базе данныхТрек 2 отсутствует в базе данныхТрек 3 отсутствует в базе данныхТрек 4 отсутствует в базе данныхТрек 5 отсутствует в базе данныхТрек 6 отсутствует в базе данныхТрек 7 отсутствует в базе данныхТрек 8 отсутствует в базе данныхТрек 9 отсутствует в базе данныхТрек 10 отсутствует в базе данныхТрек 11 отсутствует в базе данныхТрек 12 отсутствует в базе данныхТрек 13 отсутствует в базе данныхТрек 14 отсутствует в базе данныхТрек 15 отсутствует в базе данныхТрек 16 отсутствует в базе данныхТрек 17 отсутствует в базе данныхТрек 18 отсутствует в базе данныхТрек 19 отсутствует в базе данных
Ни одного трека нет в базе AccurateRip
Конец отчёта
---- CUETools DB Plugin V2.1.6
[CTDB TOCID: qHXJFUHNGVv0HGG2JEeYo.hoeoU-] disk not present in databaseSubmit result: qHXJFUHNGVv0HGG2JEeYo.hoeoU- has been uploaded
==== Контрольная сумма отчёта 03064B42BDE9B0A53C3BFCB463524A0BF760010D57FDF14C397FADEC9226EACE ====

CUE

REM GENRE Hip-Hop
REM DATE 2017
REM DISCID 180EEA13
REM COMMENT "ExactAudioCopy v1.3"
PERFORMER "Arms and Sleepers"
TITLE "Life is Everywhere"
REM COMPOSER ""
FILE "Arms and Sleepers - 2017 - Life is Everywhere.flac" WAVE
TRACK 01 AUDIO
TITLE "Chicagoland"
PERFORMER "Arms and Sleepers"
REM COMPOSER ""
ISRC QZ4JJ1671136
INDEX 01 00:00:00
TRACK 02 AUDIO
TITLE "Killshot (feat. Airospace)"
PERFORMER "Arms and Sleepers"
REM COMPOSER ""
ISRC QZ4JJ1671137
INDEX 01 02:58:45
TRACK 03 AUDIO
TITLE "Time Will Tell"
PERFORMER "Arms and Sleepers"
REM COMPOSER ""
ISRC QZ4JJ1671138
INDEX 01 07:25:44
TRACK 04 AUDIO
TITLE "Love is Everywhere"
PERFORMER "Arms and Sleepers"
REM COMPOSER ""
ISRC QZ4JJ1671139
INDEX 01 11:53:37
TRACK 05 AUDIO
TITLE "You May Visit The Cosmos"
PERFORMER "Arms and Sleepers"
REM COMPOSER ""
ISRC QZ4JJ1671140
INDEX 01 14:49:49
TRACK 06 AUDIO
TITLE "Fall Asleep When I'm Dead (feat. Airospace)"
PERFORMER "Arms and Sleepers"
REM COMPOSER ""
ISRC QZ4JJ1671141
INDEX 01 18:25:43
TRACK 07 AUDIO
TITLE "Can You"
PERFORMER "Arms and Sleepers"
REM COMPOSER ""
ISRC QZ4JJ1671142
INDEX 01 22:42:47
TRACK 08 AUDIO
TITLE "When The Body"
PERFORMER "Arms and Sleepers"
REM COMPOSER ""
ISRC QZ4JJ1671143
INDEX 01 26:06:56
TRACK 09 AUDIO
TITLE "A Ride to Nowhere (feat Sun Glitters)"
PERFORMER "Arms and Sleepers"
REM COMPOSER ""
ISRC QM9A91637841
INDEX 01 28:09:31
TRACK 10 AUDIO
TITLE "Pan Am"
PERFORMER "Arms and Sleepers"
REM COMPOSER ""
ISRC QZ4JJ1671144
INDEX 01 30:35:05
TRACK 11 AUDIO
TITLE "Mañana, Mañana"
PERFORMER "Arms and Sleepers"
REM COMPOSER ""
ISRC QZ4JJ1671145
INDEX 01 35:18:52
TRACK 12 AUDIO
TITLE "Baby"
PERFORMER "Arms and Sleepers"
REM COMPOSER ""
ISRC QZ4JJ1671146
INDEX 01 37:43:27
TRACK 13 AUDIO
TITLE "Comedown Horizon (feat. Airospace)"
PERFORMER "Arms and Sleepers"
REM COMPOSER ""
ISRC QZ4JJ1671147
INDEX 01 41:18:52
TRACK 14 AUDIO
TITLE "Grind Out"
PERFORMER "Arms and Sleepers"
REM COMPOSER ""
ISRC QZ4JJ1671148
INDEX 01 45:17:34
TRACK 15 AUDIO
TITLE "Which Ways"
PERFORMER "Arms and Sleepers"
REM COMPOSER ""
ISRC QZ4JJ1671149
INDEX 01 46:31:34
TRACK 16 AUDIO
TITLE "The Moon (feat. Serengeti)"
PERFORMER "Arms and Sleepers"
REM COMPOSER ""
ISRC QZ4JJ1671150
INDEX 01 50:17:66
TRACK 17 AUDIO
TITLE "My Cairo"
PERFORMER "Arms and Sleepers"
REM COMPOSER ""
ISRC QZ4JJ1671151
INDEX 01 55:41:71
TRACK 18 AUDIO
TITLE "Hollow Body Hold (feat. Serengeti)"
PERFORMER "Arms and Sleepers"
REM COMPOSER ""
ISRC QZ4JJ1671152
INDEX 01 57:07:31
TRACK 19 AUDIO
TITLE "Grand Theft Finale"
PERFORMER "Arms and Sleepers"
REM COMPOSER ""
ISRC QZ4JJ1671153
INDEX 01 61:26:44

Bonus videos

Отчёт MediaInfo Grand Theft Finale (Inauguration Special).mp4

General
Complete name : F:\Мои Раздачи\Arms and Sleepers\Albums\Arms and Sleepers - 2017 - Life is Everywhere (digital)\Grand Theft Finale (Inauguration Special).mp4
Format : MPEG-4
Codec ID : M4V (M4V /M4A /mp42/isom)
File size : 156 MiB
Duration : 2mn 1s
Overall bit rate mode : Variable
Overall bit rate : 10.7 Mbps
Encoded date : UTC 2017-01-22 11:23:10
Tagged date : UTC 2017-01-22 11:23:34
©TIM : 00;00;00;00
©TSZ : 1001
©TSC : 30000
Video
ID : 2
Format : AVC
Format/Info : Advanced Video Codec
Format profile : Main@L4
Format settings, CABAC : Yes
Format settings, ReFrames : 2 frames
Format settings, GOP : M=2, N=30
Codec ID : avc1
Codec ID/Info : Advanced Video Coding
Duration : 2mn 1s
Bit rate mode : Variable
Bit rate : 10.5 Mbps
Maximum bit rate : 768 Kbps
Width : 1 920 pixels
Height : 1 080 pixels
Display aspect ratio : 16:9
Frame rate mode : Constant
Frame rate : 29.970 (30000/1001) fps
Original frame rate : 25.000 fps
Color space : YUV
Chroma subsampling : 4:2:0
Bit depth : 8 bits
Scan type : Progressive
Bits/(Pixel*Frame) : 0.168
Stream size : 152 MiB (98%)
Title : Core Media Video
Language : English
Encoded date : UTC 2017-01-22 11:23:10
Tagged date : UTC 2017-01-22 11:23:34
Color range : Limited
Color primaries : BT.709
Transfer characteristics : BT.709
Matrix coefficients : BT.709
Audio
ID : 1
Format : AAC
Format/Info : Advanced Audio Codec
Format profile : LC
Codec ID : 40
Duration : 2mn 1s
Source duration : 2mn 1s
Bit rate mode : Constant
Bit rate : 256 Kbps
Channel(s) : 2 channels
Channel positions : Front: L R
Sampling rate : 48.0 KHz
Frame rate : 46.875 fps (1024 spf)
Compression mode : Lossy
Stream size : 3.72 MiB (2%)
Source stream size : 3.72 MiB (2%)
Title : Core Media Audio
Encoded date : UTC 2017-01-22 11:23:10
Tagged date : UTC 2017-01-22 11:23:34

Скриншоты

Отчёт MediaInfo New Album Trailer

eneral
Complete name : F:\Мои Раздачи\Arms and Sleepers\Albums\Arms and Sleepers - 2017 - Life is Everywhere (digital)\New Album Trailer .mp4
Format : MPEG-4
Format profile : Base Media / Version 2
Codec ID : mp42 (mp42/mp41/isom/avc1)
File size : 18.9 MiB
Duration : 43s 605ms
Overall bit rate mode : Variable
Overall bit rate : 3 644 Kbps
Encoded date : UTC 2016-10-03 10:21:39
Tagged date : UTC 2016-10-03 10:21:39
Video
ID : 1
Format : AVC
Format/Info : Advanced Video Codec
Format profile : High@L4
Format settings, CABAC : Yes
Format settings, ReFrames : 4 frames
Codec ID : avc1
Codec ID/Info : Advanced Video Coding
Duration : 42s 800ms
Bit rate : 3 448 Kbps
Width : 1 920 pixels
Height : 1 080 pixels
Display aspect ratio : 16:9
Frame rate mode : Constant
Frame rate : 25.000 fps
Color space : YUV
Chroma subsampling : 4:2:0
Bit depth : 8 bits
Scan type : Progressive
Bits/(Pixel*Frame) : 0.067
Stream size : 17.6 MiB (93%)
Writing library : x264 core 148 r10 3f5ed56
Encoding settings : cabac=1 / ref=4 / deblock=1:0:0 / analyse=0x3:0x113 / me=umh / subme=8 / psy=1 / psy_rd=1.00:0.00 / mixed_ref=1 / me_range=16 / chroma_me=1 / trellis=1 / 8x8dct=1 / cqm=0 / deadzone=21,11 / fast_pskip=1 / chroma_qp_offset=-2 / threads=34 / lookahead_threads=5 / sliced_threads=0 / nr=0 / decimate=1 / interlaced=0 / bluray_compat=0 / stitchable=1 / constrained_intra=0 / bframes=3 / b_pyramid=2 / b_adapt=2 / b_bias=0 / direct=3 / weightb=1 / open_gop=0 / weightp=2 / keyint=infinite / keyint_min=25 / scenecut=40 / intra_refresh=0 / rc_lookahead=50 / rc=crf / mbtree=1 / crf=20.0 / qcomp=0.60 / qpmin=5 / qpmax=69 / qpstep=4 / vbv_maxrate=4950 / vbv_bufsize=13500 / crf_max=0.0 / nal_hrd=none / filler=0 / ip_ratio=1.40 / aq=1:1.00
Encoded date : UTC 2016-10-03 10:21:39
Tagged date : UTC 2016-10-03 10:21:39
Color range : Limited
Color primaries : BT.709
Transfer characteristics : BT.709
Matrix coefficients : BT.709
Audio
ID : 2
Format : AAC
Format/Info : Advanced Audio Codec
Format profile : LC
Codec ID : 40
Duration : 43s 605ms
Bit rate mode : Variable
Bit rate : 256 Kbps
Channel(s) : 2 channels
Channel positions : Front: L R
Sampling rate : 48.0 KHz
Frame rate : 46.875 fps (1024 spf)
Compression mode : Lossy
Stream size : 1.33 MiB (7%)
Encoded date : UTC 2016-10-03 10:21:39
Tagged date : UTC 2016-10-03 10:21:39

Скриншоты

2017 - Life is Everywhere [Instrumentals] [web] (57:04)

Издатель (лейбл): Arms and Sleepers
Аудиокодек: FLAC (*.flac)
Тип рипа: tracks
Источник (релизер): bandcamp
Треклист:
01. Chicagoland (Instrumental) [2:59]
02. Killshot (Instrumental) [4:27]
03. Time Will Tell (Instrumental) [4:31]
04. Love is Everywhere (Instrumental) [2:56]
05. Fall Asleep When I'm Dead (Instrumental) [4:17]
06. Can You (Instrumental) [3:24]
07. Pan Am (Instrumental) [4:44]
08. Mañana, Mañana (Instrumental) [2:25]
09. Baby (Instrumental) [3:35]
10. Comedown Horizon (Instrumental) [3:59]
11. Which Ways (Instrumental) [3:46]
12. The Moon (Instrumental) [5:24]
13. Hollow Body Hold (Instrumental) [4:19]
14. Grand Theft Finale (Instrumental) [2:12]
15. Sooner or Later (Instrumental) [4:06]

Лог проверки качества

Lossless Audio Checker 2.0.7 logfile from Sunday 29 March 2020 09:52:18 PM
File: F:\Мои Раздачи\Arms and Sleepers\Albums\2017 - Life is Everywhere [Instrumentals] [web]\01 - Chicagoland (Instrumental).flacResult: Clean
File: F:\Мои Раздачи\Arms and Sleepers\Albums\2017 - Life is Everywhere [Instrumentals] [web]\02 - Killshot (Instrumental).flacResult: Clean
File: F:\Мои Раздачи\Arms and Sleepers\Albums\2017 - Life is Everywhere [Instrumentals] [web]\03 - Time Will Tell (Instrumental).flacResult: Clean
File: F:\Мои Раздачи\Arms and Sleepers\Albums\2017 - Life is Everywhere [Instrumentals] [web]\04 - Love is Everywhere (Instrumental).flacResult: Clean
File: F:\Мои Раздачи\Arms and Sleepers\Albums\2017 - Life is Everywhere [Instrumentals] [web]\05 - Fall Asleep When I'm Dead (Instrumental).flacResult: Clean
File: F:\Мои Раздачи\Arms and Sleepers\Albums\2017 - Life is Everywhere [Instrumentals] [web]\06 - Can You (Instrumental).flacResult: Clean
File: F:\Мои Раздачи\Arms and Sleepers\Albums\2017 - Life is Everywhere [Instrumentals] [web]\07 - Pan Am (Instrumental).flacResult: Clean
File: F:\Мои Раздачи\Arms and Sleepers\Albums\2017 - Life is Everywhere [Instrumentals] [web]\08 - Manana, Manana (Instrumental).flacResult: Clean
File: F:\Мои Раздачи\Arms and Sleepers\Albums\2017 - Life is Everywhere [Instrumentals] [web]\09 - Baby (Instrumental).flacResult: Clean
File: F:\Мои Раздачи\Arms and Sleepers\Albums\2017 - Life is Everywhere [Instrumentals] [web]\10 - Comedown Horizon (Instrumental).flacResult: Clean
File: F:\Мои Раздачи\Arms and Sleepers\Albums\2017 - Life is Everywhere [Instrumentals] [web]\11 - Which Ways (Instrumental).flacResult: Clean
File: F:\Мои Раздачи\Arms and Sleepers\Albums\2017 - Life is Everywhere [Instrumentals] [web]\12 - The Moon (Instrumental).flacResult: Clean
File: F:\Мои Раздачи\Arms and Sleepers\Albums\2017 - Life is Everywhere [Instrumentals] [web]\13 - Hollow Body Hold (Instrumental).flacResult: Clean
File: F:\Мои Раздачи\Arms and Sleepers\Albums\2017 - Life is Everywhere [Instrumentals] [web]\14 - Grand Theft Finale (Instrumental).flacResult: Clean
File: F:\Мои Раздачи\Arms and Sleepers\Albums\2017 - Life is Everywhere [Instrumentals] [web]\15 - Sooner or Later (Instrumental).flacResult: Clean

2018 - Find The Right Place (41:37)

Издатель (лейбл): Pelagic Records
Номер по каталогу: PEL 100
Аудиокодек: FLAC (*.flac)
Тип рипа: image+.cue
Источник (релизер): собственный рип
Треклист:
01. Kill First, Paint Later [1:06]
02. It Was Us [4:25]
03. Be This Way [3:14]
04. Down [4:07]
05. I'm Not Sour, You're A Bitch [4:14]
06. Woke To Death [4:05]
07. How Are You Different (And I'm The Same) [4:00]
08. Dead Dogs Don't Bite [3:39]
09. Consequences [5:03]
10. The World Is Not Yours [4:01]
11. A Little Larger Than The Entire Universe [3:42]

Лог проверки качества

Exact Audio Copy V1.4 from 3. February 2020
Отчёт EAC об извлечении, выполненном 29. марта 2020, 17:53
Arms And Sleepers / Find The Right Place
Дисковод: ASUS BW-12B1ST Adapter: 1 ID: 0
Режим чтения : ДостоверностьИспользование точного потока : ДаОтключение кэша аудио : ДаИспользование указателей C2 : Нет
Коррекция смещения при чтении : 6Способность читать области Lead-in и Lead-out : НетЗаполнение пропущенных сэмплов тишиной : ДаУдаление блоков с тишиной в начале и конце : НетПри вычислениях CRC использовались нулевые сэмплы : ДаИнтерфейс : Встроенный Win32-интерфейс для Win NT/2000
Выходной формат : Внутренние WAV-операцииФормат сэмплов : 44.1 кГц; 16 бит; стерео
TOC извлечённого CD
Трек | Старт | Длительность | Начальный сектор | Конечный сектор --------------------------------------------------------------------- 1 | 0:00.00 | 1:05.62 | 0 | 4936 2 | 1:05.62 | 4:24.73 | 4937 | 24809 3 | 5:30.60 | 3:14.00 | 24810 | 39359 4 | 8:44.60 | 4:07.25 | 39360 | 57909 5 | 12:52.10 | 4:14.00 | 57910 | 76959 6 | 17:06.10 | 4:05.02 | 76960 | 95336 7 | 21:11.12 | 4:00.32 | 95337 | 113368 8 | 25:11.44 | 3:39.10 | 113369 | 129803 9 | 28:50.54 | 5:03.29 | 129804 | 152557 10 | 33:54.08 | 4:00.47 | 152558 | 170604 11 | 37:54.55 | 3:42.32 | 170605 | 187286
Характеристики диапазона извлечения и сообщения об ошибках
Выбранный диапазон
Имя файла D:\EAC\Evgenius1986\Arms And Sleepers - 2018 - Find The Right Place (Pelagic Records - PEL 100)\Arms And Sleepers - 2018 - Find The Right Place.wav
Пиковый уровень 96.6 % Скорость извлечения 3.0 X Качество диапазона 100.0 % CRC теста AEC1B79F CRC копии AEC1B79F Копирование... OK
Ошибок не произошло
AccurateRip: сводка
Трек 1 отсутствует в базе данныхТрек 2 отсутствует в базе данныхТрек 3 отсутствует в базе данныхТрек 4 отсутствует в базе данныхТрек 5 отсутствует в базе данныхТрек 6 отсутствует в базе данныхТрек 7 отсутствует в базе данныхТрек 8 отсутствует в базе данныхТрек 9 отсутствует в базе данныхТрек 10 отсутствует в базе данныхТрек 11 отсутствует в базе данных
Ни одного трека нет в базе AccurateRip
Конец отчёта
---- CUETools DB Plugin V2.1.6
[CTDB TOCID: R5dqhCbpJ20kZOSOi.N8iqOCxGI-] foundSubmit result: R5dqhCbpJ20kZOSOi.N8iqOCxGI- has been confirmedTrack | CTDB Status 1 | (4/4) Accurately ripped 2 | (4/4) Accurately ripped 3 | (4/4) Accurately ripped 4 | (4/4) Accurately ripped 5 | (4/4) Accurately ripped 6 | (4/4) Accurately ripped 7 | (4/4) Accurately ripped 8 | (4/4) Accurately ripped 9 | (4/4) Accurately ripped 10 | (4/4) Accurately ripped 11 | (4/4) Accurately ripped
==== Контрольная сумма отчёта 2097BBDAE284AD2A2F3ECB80D19D176C3F018BDCE501E345C89B909891E859AC ====

CUE

REM GENRE Electronic
REM DATE 2018
REM DISCID 8109C10B
REM COMMENT "ExactAudioCopy v1.4"
PERFORMER "Arms And Sleepers"
TITLE "Find The Right Place"
REM COMPOSER ""
FILE "Arms And Sleepers - 2018 - Find The Right Place.flac" WAVE
TRACK 01 AUDIO
TITLE "Kill First, Paint Later"
PERFORMER "Arms And Sleepers"
REM COMPOSER ""
INDEX 01 00:00:00
TRACK 02 AUDIO
TITLE "It Was Us"
PERFORMER "Arms And Sleepers"
REM COMPOSER ""
INDEX 00 01:03:62
INDEX 01 01:05:62
TRACK 03 AUDIO
TITLE "Be This Way"
PERFORMER "Arms And Sleepers"
REM COMPOSER ""
INDEX 00 05:28:60
INDEX 01 05:30:60
TRACK 04 AUDIO
TITLE "Down"
PERFORMER "Arms And Sleepers"
REM COMPOSER ""
INDEX 00 08:42:60
INDEX 01 08:44:60
TRACK 05 AUDIO
TITLE "I'm Not Sour, You're A Bitch"
PERFORMER "Arms And Sleepers"
REM COMPOSER ""
INDEX 00 12:50:10
INDEX 01 12:52:10
TRACK 06 AUDIO
TITLE "Woke To Death"
PERFORMER "Arms And Sleepers"
REM COMPOSER ""
INDEX 00 17:04:10
INDEX 01 17:06:10
TRACK 07 AUDIO
TITLE "How Are You Different (And I'm The Same)"
PERFORMER "Arms And Sleepers"
REM COMPOSER ""
INDEX 00 21:09:12
INDEX 01 21:11:12
TRACK 08 AUDIO
TITLE "Dead Dogs Don't Bite"
PERFORMER "Arms And Sleepers"
REM COMPOSER ""
INDEX 00 25:09:44
INDEX 01 25:11:44
TRACK 09 AUDIO
TITLE "Consequences"
PERFORMER "Arms And Sleepers"
REM COMPOSER ""
INDEX 00 28:48:54
INDEX 01 28:50:54
TRACK 10 AUDIO
TITLE "The World Is Not Yours"
PERFORMER "Arms And Sleepers"
REM COMPOSER ""
INDEX 00 33:52:08
INDEX 01 33:54:08
TRACK 11 AUDIO
TITLE "A Little Larger Than The Entire Universe"
PERFORMER "Arms And Sleepers"
REM COMPOSER ""
INDEX 00 37:52:55
INDEX 01 37:54:55

2018 - Find The Right Place [Instrumentals] [web] (41:17)

Издатель (лейбл): Arms and Sleepers
Аудиокодек: FLAC (*.flac)
Тип рипа: tracks
Источник (релизер): bandcamp
Треклист:
01. Kill First, Paint Later (Instrumental) [1:04]
02. It Was Us (Instrumental) [4:23]
03. Be This Way (Feat. Steffaloo) (Instrumental) [3:12]
04. Down (Instrumental) [4:05]
05. I'm Not Sour, You're A Bitch (Instrumental) [4:12]
06. Woke To Death (Feat. Amber Ryann) (Instrumental) [4:03]
07. How You Are Different (And I'm The Same) (Instrumental) [3:58]
08. Dead Dogs Don't Bite (Feat. Infidelix) (Instrumental) [3:37]
09. Consequences (Feat. Kdeem) (Instrumental) [5:01]
10. The World Is Not Yours (Feat. Amber Ryann) (Instrumental) [3:59]
11. A Little Larger Than The Entire Universe (Instrumental) [3:42]

Лог проверки качества

Lossless Audio Checker 2.0.7 logfile from Sunday 29 March 2020 10:00:45 PM
File: F:\Мои Раздачи\Arms and Sleepers\Albums\2018 - Find The Right Place [Instrumentals] [web]\01 - Kill First, Paint Later (Instrumental).flacResult: Upsampled
File: F:\Мои Раздачи\Arms and Sleepers\Albums\2018 - Find The Right Place [Instrumentals] [web]\02 - It Was Us (Instrumental).flacResult: Clean
File: F:\Мои Раздачи\Arms and Sleepers\Albums\2018 - Find The Right Place [Instrumentals] [web]\03 - Be This Way (feat. Steffaloo) (Instrumental).flacResult: Clean
File: F:\Мои Раздачи\Arms and Sleepers\Albums\2018 - Find The Right Place [Instrumentals] [web]\04 - Down (Instrumental).flacResult: Clean
File: F:\Мои Раздачи\Arms and Sleepers\Albums\2018 - Find The Right Place [Instrumentals] [web]\05 - I'm Not Sour, You're A Bitch (Instrumental).flacResult: Clean
File: F:\Мои Раздачи\Arms and Sleepers\Albums\2018 - Find The Right Place [Instrumentals] [web]\06 - Woke To Death (feat. Amber Ryann) (Instrumental).flacResult: Clean
File: F:\Мои Раздачи\Arms and Sleepers\Albums\2018 - Find The Right Place [Instrumentals] [web]\07 - How You Are Different (And I'm The Same) (Instrumental).flacResult: Clean
File: F:\Мои Раздачи\Arms and Sleepers\Albums\2018 - Find The Right Place [Instrumentals] [web]\08 - Dead Dogs Don't Bite (feat. Infidelix) (Instrumental).flacResult: Clean
File: F:\Мои Раздачи\Arms and Sleepers\Albums\2018 - Find The Right Place [Instrumentals] [web]\09 - Consequences (feat. Kdeem) (Instrumental).flacResult: Clean
File: F:\Мои Раздачи\Arms and Sleepers\Albums\2018 - Find The Right Place [Instrumentals] [web]\10 - The World Is Not Yours (feat. Amber Ryann) (Instrumental).flacResult: Clean
File: F:\Мои Раздачи\Arms and Sleepers\Albums\2018 - Find The Right Place [Instrumentals] [web]\11 - A Little Larger Than The Entire Universe (Instrumental).flacResult: Clean

2020 - Safe Area Earth (53:29)

Издатель (лейбл): Future Archive Recordings
Номер по каталогу: FAR046
Аудиокодек: FLAC (*.flac)
Тип рипа: image+.cue
Источник (релизер): собственный рип
Треклист:
01. SAE [0:21]
02. Art and Scope [2:24]
03. Ruined by Geography [4:05]
04. Open to the Elements [4:26]
05. Give Me This [3:06]
06. If I Had Drowned, I Would Be Here [3:31]
07. Leon (feat. Sofia Insua) [5:44]
08. Roman and Mayan [3:16]
09. After World's End [4:48]
10. Don't Forget [3:05]
11. Black Out / Sun Shine [2:51]
12. In the Jaws of Life [3:09]
13. Both But None [1:04]
14. Centralia [4:00]
15. Unwound [3:19]
16. ... .- . [0:21]
17. That Is What Human Beings Do [3:58]

Лог проверки качества

Exact Audio Copy V1.4 from 3. February 2020
Отчёт EAC об извлечении, выполненном 29. марта 2020, 18:40
Arms And Sleepers / Safe Area Earth
Дисковод: ASUS BW-12B1ST Adapter: 1 ID: 0
Режим чтения : ДостоверностьИспользование точного потока : ДаОтключение кэша аудио : ДаИспользование указателей C2 : Нет
Коррекция смещения при чтении : 6Способность читать области Lead-in и Lead-out : НетЗаполнение пропущенных сэмплов тишиной : ДаУдаление блоков с тишиной в начале и конце : НетПри вычислениях CRC использовались нулевые сэмплы : ДаИнтерфейс : Встроенный Win32-интерфейс для Win NT/2000
Выходной формат : Внутренние WAV-операцииФормат сэмплов : 44.1 кГц; 16 бит; стерео
TOC извлечённого CD
Трек | Старт | Длительность | Начальный сектор | Конечный сектор --------------------------------------------------------------------- 1 | 0:00.00 | 0:21.24 | 0 | 1598 2 | 0:21.24 | 2:24.00 | 1599 | 12398 3 | 2:45.24 | 4:05.21 | 12399 | 30794 4 | 6:50.45 | 4:25.38 | 30795 | 50707 5 | 11:16.08 | 3:06.00 | 50708 | 64657 6 | 14:22.08 | 3:31.07 | 64658 | 80489 7 | 17:53.15 | 5:44.15 | 80490 | 106304 8 | 23:37.30 | 3:16.00 | 106305 | 121004 9 | 26:53.30 | 4:48.24 | 121005 | 142628 10 | 31:41.54 | 3:05.04 | 142629 | 156507 11 | 34:46.58 | 2:50.50 | 156508 | 169307 12 | 37:37.33 | 3:08.67 | 169308 | 183474 13 | 40:46.25 | 1:03.46 | 183475 | 188245 14 | 41:49.71 | 4:00.00 | 188246 | 206245 15 | 45:49.71 | 3:19.07 | 206246 | 221177 16 | 49:09.03 | 0:21.24 | 221178 | 222776 17 | 49:30.27 | 3:58.31 | 222777 | 240657
Характеристики диапазона извлечения и сообщения об ошибках
Выбранный диапазон
Имя файла D:\EAC\Evgenius1986\Arms And Sleepers - 2020 - Safe Area Earth (Future Archive Recordings - FAR046)\Arms And Sleepers - 2020 - Safe Area Earth.wav
Пиковый уровень 96.6 % Скорость извлечения 7.2 X Качество диапазона 99.9 % CRC теста C7AC1DFD CRC копии C7AC1DFD Копирование... OK
Ошибок не произошло
AccurateRip: сводка
Трек 1 отсутствует в базе данныхТрек 2 отсутствует в базе данныхТрек 3 отсутствует в базе данныхТрек 4 отсутствует в базе данныхТрек 5 отсутствует в базе данныхТрек 6 отсутствует в базе данныхТрек 7 отсутствует в базе данныхТрек 8 отсутствует в базе данныхТрек 9 отсутствует в базе данныхТрек 10 отсутствует в базе данныхТрек 11 отсутствует в базе данныхТрек 12 отсутствует в базе данныхТрек 13 отсутствует в базе данныхТрек 14 отсутствует в базе данныхТрек 15 отсутствует в базе данныхТрек 16 отсутствует в базе данныхТрек 17 отсутствует в базе данных
Ни одного трека нет в базе AccurateRip
Конец отчёта
---- CUETools DB Plugin V2.1.6
[CTDB TOCID: zk8NVAIjegbb4GoiULipWmEbSCY-] disk not present in databaseSubmit result: zk8NVAIjegbb4GoiULipWmEbSCY- has been uploaded
==== Контрольная сумма отчёта ADCB165F3AB9867C12AE05430FD7715905560E2901F49D3278726AC1F59D3A5F ====

CUE

REM GENRE Electronic
REM DATE 2020
REM DISCID EC0C8811
REM COMMENT "ExactAudioCopy v1.4"
PERFORMER "Arms And Sleepers"
TITLE "Safe Area Earth"
REM COMPOSER ""
FILE "Arms And Sleepers - 2020 - Safe Area Earth.flac" WAVE
TRACK 01 AUDIO
TITLE "SAE"
PERFORMER "Arms And Sleepers"
REM COMPOSER ""
INDEX 01 00:00:00
TRACK 02 AUDIO
TITLE "Art and Scope"
PERFORMER "Arms And Sleepers"
REM COMPOSER ""
INDEX 01 00:21:24
TRACK 03 AUDIO
TITLE "Ruined by Geography"
PERFORMER "Arms And Sleepers"
REM COMPOSER ""
INDEX 01 02:45:24
TRACK 04 AUDIO
TITLE "Open to the Elements"
PERFORMER "Arms And Sleepers"
REM COMPOSER ""
INDEX 01 06:50:45
TRACK 05 AUDIO
TITLE "Give Me This"
PERFORMER "Arms And Sleepers"
REM COMPOSER ""
INDEX 01 11:16:08
TRACK 06 AUDIO
TITLE "If I Had Drowned, I Would Be Here"
PERFORMER "Arms And Sleepers"
REM COMPOSER ""
INDEX 01 14:22:08
TRACK 07 AUDIO
TITLE "Leon (feat. Sofia Insua)"
PERFORMER "Arms And Sleepers"
REM COMPOSER ""
INDEX 01 17:53:15
TRACK 08 AUDIO
TITLE "Roman and Mayan"
PERFORMER "Arms And Sleepers"
REM COMPOSER ""
INDEX 01 23:37:30
TRACK 09 AUDIO
TITLE "After World's End"
PERFORMER "Arms And Sleepers"
REM COMPOSER ""
INDEX 01 26:53:30
TRACK 10 AUDIO
TITLE "Don't Forget"
PERFORMER "Arms And Sleepers"
REM COMPOSER ""
INDEX 01 31:41:54
TRACK 11 AUDIO
TITLE "Black Out / Sun Shine"
PERFORMER "Arms And Sleepers"
REM COMPOSER ""
INDEX 01 34:46:58
TRACK 12 AUDIO
TITLE "In the Jaws of Life"
PERFORMER "Arms And Sleepers"
REM COMPOSER ""
INDEX 01 37:37:33
TRACK 13 AUDIO
TITLE "Both But None"
PERFORMER "Arms And Sleepers"
REM COMPOSER ""
INDEX 01 40:46:25
TRACK 14 AUDIO
TITLE "Centralia"
PERFORMER "Arms And Sleepers"
REM COMPOSER ""
INDEX 01 41:49:71
TRACK 15 AUDIO
TITLE "Unwound"
PERFORMER "Arms And Sleepers"
REM COMPOSER ""
INDEX 01 45:49:71
TRACK 16 AUDIO
TITLE "... .- ."
PERFORMER "Arms And Sleepers"
REM COMPOSER ""
INDEX 01 49:09:03
TRACK 17 AUDIO
TITLE "That Is What Human Beings Do"
PERFORMER "Arms And Sleepers"
REM COMPOSER ""
INDEX 01 49:30:27

2020 - Leviathan (In Times Of) [web] (31:17)

Издатель (лейбл): Arms and Sleepers
Аудиокодек: FLAC (*.flac)
Тип рипа: tracks
Источник (релизер): bandcamp
Треклист:
01. Welcome Back Melancholy [1:22]
02. How It Was, How It Will Be [4:12]
03. Imanta [2:24]
04. Everything Of You [1:57]
05. The Very Difficulty Of It Is Why You Must [4:54]
06. Kontroll [1:51]
07. To The Manner Born [6:38]
08. Good Luck To Us All [4:20]
09. Those Who Labor And Those Who Love [3:40]

Лог проверки качества

Lossless Audio Checker 2.0.7 logfile from Sunday 29 March 2020 10:04:54 PM
File: F:\Мои Раздачи\Arms and Sleepers\Albums\2020 - Leviathan (In Times Of) [web]\01 - Welcome Back Melancholy.flacResult: Upsampled
File: F:\Мои Раздачи\Arms and Sleepers\Albums\2020 - Leviathan (In Times Of) [web]\02 - How It Was, How It Will Be.flacResult: Clean
File: F:\Мои Раздачи\Arms and Sleepers\Albums\2020 - Leviathan (In Times Of) [web]\03 - Imanta.flacResult: Clean
File: F:\Мои Раздачи\Arms and Sleepers\Albums\2020 - Leviathan (In Times Of) [web]\04 - Everything Of You.flacResult: Upsampled
File: F:\Мои Раздачи\Arms and Sleepers\Albums\2020 - Leviathan (In Times Of) [web]\05 - The Very Difficulty Of It Is Why You Must.flacResult: Clean
File: F:\Мои Раздачи\Arms and Sleepers\Albums\2020 - Leviathan (In Times Of) [web]\06 - Kontroll.flacResult: Clean
File: F:\Мои Раздачи\Arms and Sleepers\Albums\2020 - Leviathan (In Times Of) [web]\07 - To The Manner Born.flacResult: Clean
File: F:\Мои Раздачи\Arms and Sleepers\Albums\2020 - Leviathan (In Times Of) [web]\08 - Good Luck To Us All.flacResult: Clean
File: F:\Мои Раздачи\Arms and Sleepers\Albums\2020 - Leviathan (In Times Of) [web]\09 - Those Who Labor And Those Who Love.flacResult: Clean
Ep's

2006 - Bliss Was It in That Dawn to Be Alive (33:12)

Издатель (лейбл): Fake Chapter Records
Номер по каталогу: FAKE32
Аудиокодек: FLAC (*.flac)
Тип рипа: image+.cue
Источник (релизер): собственный рип
Треклист:
01. Beneath Brick and Books [3:05]
02. A Mission to Prague [5:48]
03. Arms/Sleepers [5:09]
04. Warm [4:07]
05. A Girl Named Clive [3:37]
06. Moscow Pop [4:37]
07. Untitled [6:46]

Лог проверки качества

Exact Audio Copy V1.3 from 2. September 2016
Отчёт EAC об извлечении, выполненном 3. июня 2017, 16:17
Arms and Sleepers / Bliss Was It in That Dawn to Be Alive
Дисковод: ASUS BW-12B1ST Adapter: 1 ID: 0
Режим чтения : ДостоверностьИспользование точного потока : ДаОтключение кэша аудио : ДаИспользование указателей C2 : Нет
Коррекция смещения при чтении : 6Способность читать области Lead-in и Lead-out : НетЗаполнение пропущенных сэмплов тишиной : ДаУдаление блоков с тишиной в начале и конце : НетПри вычислениях CRC использовались нулевые сэмплы : ДаИнтерфейс : Встроенный Win32-интерфейс для Win NT/2000
Выходной формат : Внутренние WAV-операцииФормат сэмплов : 44.100 Гц; 16 бит; стерео
TOC извлечённого CD
Трек | Старт | Длительность | Начальный сектор | Конечный сектор --------------------------------------------------------------------- 1 | 0:00.00 | 3:05.25 | 0 | 13899 2 | 3:05.25 | 5:48.57 | 13900 | 40056 3 | 8:54.07 | 5:09.67 | 40057 | 63298 4 | 14:03.74 | 4:07.07 | 63299 | 81830 5 | 18:11.06 | 3:37.09 | 81831 | 98114 6 | 21:48.15 | 4:37.60 | 98115 | 118949 7 | 26:26.00 | 6:46.40 | 118950 | 149439
Характеристики диапазона извлечения и сообщения об ошибках
Выбранный диапазон
Имя файла D:\EAC\Evgenius1986\Arms and Sleepers - 2006 - Bliss Was It in That Dawn to Be Alive (Fake Chapter Records - FAKE32)\Arms and Sleepers - 2006 - Bliss Was It in That Dawn to Be Alive.wav
Пиковый уровень 99.9 % Скорость извлечения 2.8 X Качество диапазона 100.0 % CRC теста 8FFDB3B7 CRC копии 8FFDB3B7 Копирование... OK
Ошибок не произошло
AccurateRip: сводка
Трек 1 точность не определена (достоверность 1) [2FEC3884], AccurateRip вернул [C88D217A] (AR v2)Трек 2 точность не определена (достоверность 1) [8164EE8A], AccurateRip вернул [E8F30C09] (AR v2)Трек 3 точность не определена (достоверность 1) [BC087381], AccurateRip вернул [5D2C6F5A] (AR v2)Трек 4 точность не определена (достоверность 1) [9666EF61], AccurateRip вернул [0C7B8FE8] (AR v2)Трек 5 точность не определена (достоверность 1) [55ACE781], AccurateRip вернул [327B1909] (AR v2)Трек 6 точность не определена (достоверность 1) [C81FA1D6], AccurateRip вернул [67D42A96] (AR v2)Трек 7 точность не определена (достоверность 1) [F2645190], AccurateRip вернул [E07D282D] (AR v2)
Ни один трек не прошёл проверки на точностьВ вашей базе может быть иной вариант штамповки диска
Конец отчёта
---- CUETools DB Plugin V2.1.6
[CTDB TOCID: bt2dC5CvagKsbWFBVvqxBZAj6Hc-] foundSubmit result: bt2dC5CvagKsbWFBVvqxBZAj6Hc- has been confirmedTrack | CTDB Status 1 | (2/2) Accurately ripped 2 | (2/2) Accurately ripped 3 | (2/2) Accurately ripped 4 | (2/2) Accurately ripped 5 | (2/2) Accurately ripped 6 | (2/2) Accurately ripped 7 | (1/2) Accurately ripped, or (1/2) differs in 487 samples @06:46:12-06:46:30
==== Контрольная сумма отчёта 3BDB59FE132E24B59F46AB9AEDEFC761239028FE8BF724971BF46CBDD7D3D514 ====

CUE

REM GENRE Electronic
REM DATE 2020
REM DISCID EC0C8811
REM COMMENT "ExactAudioCopy v1.4"
PERFORMER "Arms And Sleepers"
TITLE "Safe Area Earth"
REM COMPOSER ""
FILE "Arms And Sleepers - 2020 - Safe Area Earth.flac" WAVE
TRACK 01 AUDIO
TITLE "SAE"
PERFORMER "Arms And Sleepers"
REM COMPOSER ""
INDEX 01 00:00:00
TRACK 02 AUDIO
TITLE "Art and Scope"
PERFORMER "Arms And Sleepers"
REM COMPOSER ""
INDEX 01 00:21:24
TRACK 03 AUDIO
TITLE "Ruined by Geography"
PERFORMER "Arms And Sleepers"
REM COMPOSER ""
INDEX 01 02:45:24
TRACK 04 AUDIO
TITLE "Open to the Elements"
PERFORMER "Arms And Sleepers"
REM COMPOSER ""
INDEX 01 06:50:45
TRACK 05 AUDIO
TITLE "Give Me This"
PERFORMER "Arms And Sleepers"
REM COMPOSER ""
INDEX 01 11:16:08
TRACK 06 AUDIO
TITLE "If I Had Drowned, I Would Be Here"
PERFORMER "Arms And Sleepers"
REM COMPOSER ""
INDEX 01 14:22:08
TRACK 07 AUDIO
TITLE "Leon (feat. Sofia Insua)"
PERFORMER "Arms And Sleepers"
REM COMPOSER ""
INDEX 01 17:53:15
TRACK 08 AUDIO
TITLE "Roman and Mayan"
PERFORMER "Arms And Sleepers"
REM COMPOSER ""
INDEX 01 23:37:30
TRACK 09 AUDIO
TITLE "After World's End"
PERFORMER "Arms And Sleepers"
REM COMPOSER ""
INDEX 01 26:53:30
TRACK 10 AUDIO
TITLE "Don't Forget"
PERFORMER "Arms And Sleepers"
REM COMPOSER ""
INDEX 01 31:41:54
TRACK 11 AUDIO
TITLE "Black Out / Sun Shine"
PERFORMER "Arms And Sleepers"
REM COMPOSER ""
INDEX 01 34:46:58
TRACK 12 AUDIO
TITLE "In the Jaws of Life"
PERFORMER "Arms And Sleepers"
REM COMPOSER ""
INDEX 01 37:37:33
TRACK 13 AUDIO
TITLE "Both But None"
PERFORMER "Arms And Sleepers"
REM COMPOSER ""
INDEX 01 40:46:25
TRACK 14 AUDIO
TITLE "Centralia"
PERFORMER "Arms And Sleepers"
REM COMPOSER ""
INDEX 01 41:49:71
TRACK 15 AUDIO
TITLE "Unwound"
PERFORMER "Arms And Sleepers"
REM COMPOSER ""
INDEX 01 45:49:71
TRACK 16 AUDIO
TITLE "... .- ."
PERFORMER "Arms And Sleepers"
REM COMPOSER ""
INDEX 01 49:09:03
TRACK 17 AUDIO
TITLE "That Is What Human Beings Do"
PERFORMER "Arms And Sleepers"
REM COMPOSER ""
INDEX 01 49:30:27

2007 - Arms and Sleepers [web] (23:21)

Издатель (лейбл): Arms and Sleepers
Аудиокодек: FLAC (*.flac)
Тип рипа: tracks
Источник (релизер): Arms and Sleepers shop
Треклист:
01. we're all Paris now (pt.1) [2:52]
02. Runner Misplaced [4:54]
03. By My Bones [2:09]
04. Red Light Pipe Dreams [3:49]
05. winter is coming [2:12]
06. Lights & Alarm [7:23]

Лог проверки качества

Lossless Audio Checker 2.0.7 logfile from Sunday 29 March 2020 10:06:33 PM
File: F:\Мои Раздачи\Arms and Sleepers\EP's\2007 - Arms and Sleepers [web]\01 - We're All Paris Now (Pt. 1).flacResult: Clean
File: F:\Мои Раздачи\Arms and Sleepers\EP's\2007 - Arms and Sleepers [web]\02 - Runner Misplaced.flacResult: Clean
File: F:\Мои Раздачи\Arms and Sleepers\EP's\2007 - Arms and Sleepers [web]\03 - By My Bones.flacResult: Clean
File: F:\Мои Раздачи\Arms and Sleepers\EP's\2007 - Arms and Sleepers [web]\04 - Red Light Pipe Dreams.flacResult: Clean
File: F:\Мои Раздачи\Arms and Sleepers\EP's\2007 - Arms and Sleepers [web]\05 - Winter Is Coming.flacResult: Clean
File: F:\Мои Раздачи\Arms and Sleepers\EP's\2007 - Arms and Sleepers [web]\06 - Lights & Alarms.flacResult: Clean

2007 - Lautlos [web] (16:26)

Издатель (лейбл): Arms and Sleepers
Аудиокодек: FLAC (*.flac)
Тип рипа: tracks
Источник (релизер): Arms and Sleepers shop
Треклист:
01. Lautlos [4:21]
02. Cinemas For Marseille [2:09]
03. From Under The Floor Boards [2:42]
04. Se Vende Limber [4:08]
05. Found In Manhattan [3:04]

Лог проверки качества

Lossless Audio Checker 2.0.7 logfile from Sunday 29 March 2020 10:08:21 PM
File: F:\Мои Раздачи\Arms and Sleepers\EP's\2007 - Lautlos [web]\01 - Lautlos.flacResult: Clean
File: F:\Мои Раздачи\Arms and Sleepers\EP's\2007 - Lautlos [web]\02 - Cinemas for Marseille.flacResult: Upsampled
File: F:\Мои Раздачи\Arms and Sleepers\EP's\2007 - Lautlos [web]\03 - From Under the Floor Boards.flacResult: Upsampled
File: F:\Мои Раздачи\Arms and Sleepers\EP's\2007 - Lautlos [web]\04 - Se vende limber.flacResult: Upsampled
File: F:\Мои Раздачи\Arms and Sleepers\EP's\2007 - Lautlos [web]\05 - Found in Manhattan.flacResult: Upsampled

Спектрограммы

2009 - From the Inland Sea [web] (16:58)

Издатель (лейбл): Arms and Sleepers
Аудиокодек: FLAC (*.flac)
Тип рипа: tracks
Источник (релизер): Arms and Sleepers shop
Треклист:
01. The Catcher Elsewhere [4:56]
02. Van Buren [5:06]
03. From The Inland Sea [6:56]

Лог проверки качества

Lossless Audio Checker 2.0.7 logfile from Sunday 29 March 2020 10:09:45 PM
File: F:\Мои Раздачи\Arms and Sleepers\EP's\2009 - From the Inland Sea [web]\01 - The Catcher Elsewhere.flacResult: Clean
File: F:\Мои Раздачи\Arms and Sleepers\EP's\2009 - From the Inland Sea [web]\02 - Van Buren.flacResult: Clean
File: F:\Мои Раздачи\Arms and Sleepers\EP's\2009 - From the Inland Sea [web]\03 - The Inland Sea.flacResult: Clean

2009 - Matador Alternate Versions/B-Sides [web] (28:40)

Издатель (лейбл): Arms and Sleepers
Аудиокодек: FLAC (*.flac)
Тип рипа: tracks
Источник (релизер): Arms and Sleepers shop
Треклист:
01. Matador (Bedside Version) [5:14]
02. Armes [2:58]
03. Léon (Instrumental Version) [5:44]
04. Still [4:38]
05. Kino (PV Version) [2:24]
06. Simone (Alternate Version) [3:50]
07. Kino (Airport Mix) [3:52]

Лог проверки качества

Lossless Audio Checker 2.0.7 logfile from Sunday 29 March 2020 10:11:21 PM
File: F:\Мои Раздачи\Arms and Sleepers\EP's\2009 - Matador Alternate Versions, B-Sides [web]\01 - Matador (Bedside Version).flacResult: Clean
File: F:\Мои Раздачи\Arms and Sleepers\EP's\2009 - Matador Alternate Versions, B-Sides [web]\02 - Armes.flacResult: Upsampled
File: F:\Мои Раздачи\Arms and Sleepers\EP's\2009 - Matador Alternate Versions, B-Sides [web]\03 - Léon (Instrumental Version).flacResult: Clean
File: F:\Мои Раздачи\Arms and Sleepers\EP's\2009 - Matador Alternate Versions, B-Sides [web]\04 - Still.flacResult: Clean
File: F:\Мои Раздачи\Arms and Sleepers\EP's\2009 - Matador Alternate Versions, B-Sides [web]\05 - Kino (PV Version).flacResult: Clean
File: F:\Мои Раздачи\Arms and Sleepers\EP's\2009 - Matador Alternate Versions, B-Sides [web]\06 - Simone (Alternate Version).flacResult: Clean
File: F:\Мои Раздачи\Arms and Sleepers\EP's\2009 - Matador Alternate Versions, B-Sides [web]\07 - Kino (Airport Mix).flacResult: Upsampled

2009 - The Motorist [web] (15:18)

Издатель (лейбл): Arms and Sleepers
Аудиокодек: FLAC (*.flac)
Тип рипа: tracks
Источник (релизер): Arms and Sleepers shop
Треклист:
01. Dear Charles, My Muse, Asleep or Dead [2:10]
02. The Motorist [4:48]
03. Jetty [4:21]
04. Algiers Point [1:27]
05. In the Empire of Builders [2:30]

Лог проверки качества

Lossless Audio Checker 2.0.7 logfile from Sunday 29 March 2020 10:12:24 PM
File: F:\Мои Раздачи\Arms and Sleepers\EP's\2009 - The Motorist [web]\01 - Dear Charles, My Muse, Asleep or Dead.flacResult: Clean
File: F:\Мои Раздачи\Arms and Sleepers\EP's\2009 - The Motorist [web]\02 - The Motorist.flacResult: Clean
File: F:\Мои Раздачи\Arms and Sleepers\EP's\2009 - The Motorist [web]\03 - Jetty.flacResult: Clean
File: F:\Мои Раздачи\Arms and Sleepers\EP's\2009 - The Motorist [web]\04 - Algiers Point.flacResult: Upsampled
File: F:\Мои Раздачи\Arms and Sleepers\EP's\2009 - The Motorist [web]\05 - In the Empire of Builders.flacResult: Upsampled

2011 - A Man, a Plan, a Canal: Panama [web] (41:05)

Издатель (лейбл): Arms and Sleepers
Аудиокодек: FLAC (*.flac)
Тип рипа: tracks
Источник (релизер): Arms and Sleepers shop
Треклист:
01. The Cooler [02:58]
02. The Pedestrian [04:12]
03. In Memorium [04:10]
04. Escape [04:42]
05. From The City Of Lights [02:22]

Лог проверки качества

Lossless Audio Checker 2.0.7 logfile from Sunday 29 March 2020 10:13:51 PM
File: F:\Мои Раздачи\Arms and Sleepers\EP's\2011 - A Man, a Plan, a Canal - Panama [web]\01 - The Cooler.flacResult: Clean
File: F:\Мои Раздачи\Arms and Sleepers\EP's\2011 - A Man, a Plan, a Canal - Panama [web]\02 - The Pedestrian.flacResult: Clean
File: F:\Мои Раздачи\Arms and Sleepers\EP's\2011 - A Man, a Plan, a Canal - Panama [web]\03 - In Memorium.flacResult: Clean
File: F:\Мои Раздачи\Arms and Sleepers\EP's\2011 - A Man, a Plan, a Canal - Panama [web]\04 - Escape.flacResult: Clean
File: F:\Мои Раздачи\Arms and Sleepers\EP's\2011 - A Man, a Plan, a Canal - Panama [web]\05 - From the City of Lights.flacResult: Clean

2011 - Digital EP [web] (07:08)

Издатель (лейбл): Arms and Sleepers
Аудиокодек: FLAC (*.flac)
Тип рипа: tracks
Источник (релизер): Arms and Sleepers shop
Треклист:
01. Aux [03:06]
02. Noir Gang [01:30]
03. Kigali Jazz [02:12]

Лог проверки качества

Lossless Audio Checker 2.0.7 logfile from Monday 30 March 2020 12:03:11 AM
File: F:\Мои Раздачи\Arms and Sleepers\EP's\2011 - Digital EP [web]\01 - Aux.flacResult: Clean
File: F:\Мои Раздачи\Arms and Sleepers\EP's\2011 - Digital EP [web]\02 - Noir Gang.flacResult: Upsampled
File: F:\Мои Раздачи\Arms and Sleepers\EP's\2011 - Digital EP [web]\03 - Kigali Jazz.flacResult: Clean

2014 - Album Bonus Tracks (2008-Present) [web] (23:20)

Издатель (лейбл): Arms and Sleepers
Аудиокодек: FLAC (*.flac)
Тип рипа: tracks
Источник (релизер): bandcamp
Треклист:
01. I am a strange loop (Black Paris 86 Bonus Track) [04:38]
02. Kanal (Black Paris 86 Bonus Track) [04:53]
03. L-Orizzont (Matador Bonus Track) [02:28]
04. we're all Paris now (pt. 2) (Matador Bonus Track) [04:46]
05. Rire Jaune (Nostalgia For The Absolute Bonus Track) [03:12]
06. Cool Runnin (Swim Team Bonus Track) [01:40]
07. Untied (Swim Team Bonus Track) [01:44]

Лог проверки качества

Lossless Audio Checker 2.0.7 logfile from Sunday 29 March 2020 10:17:44 PM
File: F:\Мои Раздачи\Arms and Sleepers\EP's\2014 - Album Bonus Tracks (2008-Present) [web]\01 - I am a strange loop (Black Paris 86 Bonus Track).flacResult: Clean
File: F:\Мои Раздачи\Arms and Sleepers\EP's\2014 - Album Bonus Tracks (2008-Present) [web]\02 - Kanal (Black Paris 86 Bonus Track).flacResult: Clean
File: F:\Мои Раздачи\Arms and Sleepers\EP's\2014 - Album Bonus Tracks (2008-Present) [web]\03 - L-Orizzont (Matador Bonus Track).flacResult: Clean
File: F:\Мои Раздачи\Arms and Sleepers\EP's\2014 - Album Bonus Tracks (2008-Present) [web]\04 - we're all Paris now (pt. 2) (Matador Bonus Track).flacResult: Clean
File: F:\Мои Раздачи\Arms and Sleepers\EP's\2014 - Album Bonus Tracks (2008-Present) [web]\05 - Rire Jaune (Nostalgia For The Absolute Bonus Track).flacResult: Upsampled
File: F:\Мои Раздачи\Arms and Sleepers\EP's\2014 - Album Bonus Tracks (2008-Present) [web]\06 - Cool Runnin (Swim Team Bonus Track).flacResult: Clean
File: F:\Мои Раздачи\Arms and Sleepers\EP's\2014 - Album Bonus Tracks (2008-Present) [web]\07 - Untied (Swim Team Bonus Track).flacResult: Clean

2015 - AAS X SG EP (10:13)

Издатель (лейбл): Fake Chapter Records
Номер по каталогу: FAKE32
Аудиокодек: FLAC (*.flac)
Тип рипа: image+.cue
Источник (релизер): собственный рип
Треклист:
01. Arms and Sleepers - Kanada Vintage [2:56]
02. Arms and Sleepers - W [1:15]
03. Sun Glitters - Night Breeze [1:37]
04. Sun Glitters - See You [4:25]

Лог проверки качества

Exact Audio Copy V1.3 from 2. September 2016
Отчёт EAC об извлечении, выполненном 3. июня 2017, 22:06
Arms and Sleepers & Sun Glitters / AAS X SG
Дисковод: ASUS BW-12B1ST Adapter: 1 ID: 0
Режим чтения : ДостоверностьИспользование точного потока : ДаОтключение кэша аудио : ДаИспользование указателей C2 : Нет
Коррекция смещения при чтении : 6Способность читать области Lead-in и Lead-out : НетЗаполнение пропущенных сэмплов тишиной : ДаУдаление блоков с тишиной в начале и конце : НетПри вычислениях CRC использовались нулевые сэмплы : ДаИнтерфейс : Встроенный Win32-интерфейс для Win NT/2000
Выходной формат : Внутренние WAV-операцииФормат сэмплов : 44.100 Гц; 16 бит; стерео
TOC извлечённого CD
Трек | Старт | Длительность | Начальный сектор | Конечный сектор --------------------------------------------------------------------- 1 | 0:00.00 | 2:56.04 | 0 | 13203 2 | 2:56.04 | 1:14.53 | 13204 | 18806 3 | 4:10.57 | 1:37.05 | 18807 | 26086 4 | 5:47.62 | 4:25.14 | 26087 | 45975
Характеристики диапазона извлечения и сообщения об ошибках
Выбранный диапазон
Имя файла D:\EAC\Evgenius1986\Arms and Sleepers & Sun Glitters - 2015 - AAS X SG EP\Arms and Sleepers & Sun Glitters - 2015 - AAS X SG.wav
Пиковый уровень 96.6 % Скорость извлечения 2.5 X Качество диапазона 100.0 % CRC теста E66AB237 CRC копии E66AB237 Копирование... OK
Ошибок не произошло
AccurateRip: сводка
Трек 1 отсутствует в базе данныхТрек 2 отсутствует в базе данныхТрек 3 отсутствует в базе данныхТрек 4 отсутствует в базе данных
Ни одного трека нет в базе AccurateRip
Конец отчёта
---- CUETools DB Plugin V2.1.6
[CTDB TOCID: 5yvsF4.yjSFlkGWpXJ9dLqd1JTY-] disk not present in databaseSubmit result: 5yvsF4.yjSFlkGWpXJ9dLqd1JTY- has been uploaded
==== Контрольная сумма отчёта 9F25DA90BB43557B19F551B6E16BC1400CFF8F67F4F8F7E017351CD54374C8F5 ====

CUE

REM GENRE Electronica
REM DATE 2015
REM DISCID 2B026504
REM COMMENT "ExactAudioCopy v1.3"
PERFORMER "Arms and Sleepers & Sun Glitters"
TITLE "AAS X SG"
REM COMPOSER ""
FILE "Arms and Sleepers & Sun Glitters - 2015 - AAS X SG.flac" WAVE
TRACK 01 AUDIO
TITLE "Kanada Vintage"
PERFORMER "Arms and Sleepers"
REM COMPOSER ""
INDEX 01 00:00:00
TRACK 02 AUDIO
TITLE "W"
PERFORMER "Arms and Sleepers"
REM COMPOSER ""
INDEX 01 02:56:04
TRACK 03 AUDIO
TITLE "Night Breeze"
PERFORMER "Sun Glitters"
REM COMPOSER ""
INDEX 01 04:10:57
TRACK 04 AUDIO
TITLE "See You"
PERFORMER "Sun Glitters"
REM COMPOSER ""
INDEX 01 05:47:62

2015 - Instrumentals [web] (39:56)

Издатель (лейбл): Arms and Sleepers
Аудиокодек: FLAC (*.flac)
Тип рипа: tracks
Источник (релизер): bandcamp
Треклист:
01. 71 Fragments Of A Chronology Of Chance (Instrumental) [04:46]
02. Matador (Instrumental) [05:11]
03. The Architekt (Instrumental) [04:46]
04. Twentynine Palms (Instrumental) [05:42]
05. Simone (Instrumental) [03:12]
06. Tusk (Instrumental) [05:02]
07. I Sing The Body Electric (Instrumental) [05:16]
08. Kiss Tomorrow Goodbye (Instrumental) [06:02]

Лог проверки качества

Lossless Audio Checker 2.0.7 logfile from Sunday 29 March 2020 10:19:56 PM
File: F:\Мои Раздачи\Arms and Sleepers\EP's\2015 - Instrumentals [web]\01 - 71 Fragments Of A Chronology Of Chance (Instrumental).flacResult: Clean
File: F:\Мои Раздачи\Arms and Sleepers\EP's\2015 - Instrumentals [web]\02 - Matador (Instrumental).flacResult: Clean
File: F:\Мои Раздачи\Arms and Sleepers\EP's\2015 - Instrumentals [web]\03 - The Architekt (Instrumental).flacResult: Clean
File: F:\Мои Раздачи\Arms and Sleepers\EP's\2015 - Instrumentals [web]\04 - Twentynine Palms (Instrumental).flacResult: Clean
File: F:\Мои Раздачи\Arms and Sleepers\EP's\2015 - Instrumentals [web]\05 - Simone (Instrumental).flacResult: Clean
File: F:\Мои Раздачи\Arms and Sleepers\EP's\2015 - Instrumentals [web]\06 - Tusk (Instrumental).flacResult: Clean
File: F:\Мои Раздачи\Arms and Sleepers\EP's\2015 - Instrumentals [web]\07 - I Sing The Body Electric (Instrumental).flacResult: Clean
File: F:\Мои Раздачи\Arms and Sleepers\EP's\2015 - Instrumentals [web]\08 - Kiss Tomorrow Goodbye (Instrumental).flacResult: Clean

2016 - Tiger Tempo EP [web] (18:48)

Издатель (лейбл): Arms and Sleepers
Аудиокодек: FLAC (*.flac)
Тип рипа: tracks
Источник (релизер): bandcamp
Треклист:
01. Tiger Tempo [3:36]
02. Tiger Tempo (Polygrim rmx) [4:18]
03. Tiger Tempo (9 Theory rmx) [3:53]
04. Hummingbird (Alt. Version) [3:15]
05. Chinese Ink [3:46]

Лог проверки качества

Lossless Audio Checker 2.0.7 logfile from Sunday 29 March 2020 10:24:40 PM
File: F:\Мои Раздачи\Arms and Sleepers\EP's\2016 - Tiger Tempo EP [web]\01 - Tiger Tempo.flacResult: Clean
File: F:\Мои Раздачи\Arms and Sleepers\EP's\2016 - Tiger Tempo EP [web]\02 - Tiger Tempo (Polygrim rmx).flacResult: Clean
File: F:\Мои Раздачи\Arms and Sleepers\EP's\2016 - Tiger Tempo EP [web]\03 - Tiger Tempo (9 Theory rmx).flacResult: Clean
File: F:\Мои Раздачи\Arms and Sleepers\EP's\2016 - Tiger Tempo EP [web]\04 - Hummingbird (Alt. Version).flacResult: Clean
File: F:\Мои Раздачи\Arms and Sleepers\EP's\2016 - Tiger Tempo EP [web]\05 - Chinese Ink.flacResult: Clean

2016 - Miami [web] (22:43)

Издатель (лейбл): Arms and Sleepers
Аудиокодек: FLAC (*.flac)
Тип рипа: tracks
Источник (релизер): kickstarter
Треклист:
01. Dex [2:59]
02. Miami [3:38]
03. Too Much Too Late [3:05]
04. Mono Stereo [3:58]
05. Yo/Ko/Oh/No [3:14]
06. Beachwave [1:15]
07. Some Die Young [4:33]

Лог проверки качества

Lossless Audio Checker 2.0.7 logfile from Sunday 29 March 2020 10:22:38 PM
File: F:\Мои Раздачи\Arms and Sleepers\EP's\2016 - Miami [web]\01 - Dex.flacResult: Clean
File: F:\Мои Раздачи\Arms and Sleepers\EP's\2016 - Miami [web]\02 - Miami.flacResult: Clean
File: F:\Мои Раздачи\Arms and Sleepers\EP's\2016 - Miami [web]\03 - Too Much Too Late.flacResult: Clean
File: F:\Мои Раздачи\Arms and Sleepers\EP's\2016 - Miami [web]\04 - Mono Stereo.flacResult: Clean
File: F:\Мои Раздачи\Arms and Sleepers\EP's\2016 - Miami [web]\05 - Yo,Ko,Oh,No.flacResult: Clean
File: F:\Мои Раздачи\Arms and Sleepers\EP's\2016 - Miami [web]\06 - Beachwave.flacResult: Clean
File: F:\Мои Раздачи\Arms and Sleepers\EP's\2016 - Miami [web]\07 - Some Die Young.flacResult: Clean
Singles & bonus tracks

2007 - Holiday CD-DVD [web] (09:30)

Издатель (лейбл): Arms and Sleepers
Аудиокодек: FLAC (*.flac)
Тип рипа: tracks
Источник (релизер): Arms and Sleepers shop
Треклист:
01. Kanal [9:30]

Лог проверки качества

Lossless Audio Checker 2.0.7 logfile from Sunday 29 March 2020 10:25:37 PM
File: F:\Мои Раздачи\Arms and Sleepers\Singles & bonus tracks\2007 - Holiday CD-DVD [web single]\01 - Kanal.flacResult: Clean

2011 - Tusk [web] (10:10)

Издатель (лейбл): Arms and Sleepers
Аудиокодек: FLAC (*.flac)
Тип рипа: tracks
Источник (релизер): Arms and Sleepers shop
Треклист:
01. Tusk [4:56]
02. Tusk (Helios remix) [5:14]

Лог проверки качества

Lossless Audio Checker 2.0.7 logfile from Sunday 29 March 2020 10:27:29 PM
File: F:\Мои Раздачи\Arms and Sleepers\Singles & bonus tracks\2011 - Tusk [web single]\01 - Tusk.flacResult: Clean
File: F:\Мои Раздачи\Arms and Sleepers\Singles & bonus tracks\2011 - Tusk [web single]\02 - Tusk (Helios remix).flacResult: Clean

2014 - Hurry Slowly [web] (07:36)

Издатель (лейбл): Arms and Sleepers
Аудиокодек: FLAC (*.flac)
Тип рипа: tracks
Источник (релизер): Arms and Sleepers shop
Треклист:
01. Hurry Slowly [3:36]
02. Unshield [4:00]

Лог проверки качества

Lossless Audio Checker 2.0.7 logfile from Sunday 29 March 2020 10:28:50 PM
File: F:\Мои Раздачи\Arms and Sleepers\Singles & bonus tracks\2014 - Hurry Slowly [web single]\01 - Hurry Slowly.flacResult: Clean
File: F:\Мои Раздачи\Arms and Sleepers\Singles & bonus tracks\2014 - Hurry Slowly [web single]\02 - Unshield.flacResult: Clean

2016 - Time Will Tell [web] (08:34)

Издатель (лейбл): Arms and Sleepers
Аудиокодек: FLAC (*.flac)
Тип рипа: tracks
Источник (релизер): bandcamp
Треклист:
01. Time Will Tell [4:28]
02. Sooner or Later [4:06]

Лог проверки качества

Lossless Audio Checker 2.0.7 logfile from Sunday 29 March 2020 10:30:38 PM
File: F:\Мои Раздачи\Arms and Sleepers\Singles & bonus tracks\2016 - Time Will Tell (web single)\01 - Time Will Tell.flacResult: Clean
File: F:\Мои Раздачи\Arms and Sleepers\Singles & bonus tracks\2016 - Time Will Tell (web single)\02 - Sooner or Later.flacResult: Clean

2016 - Hollow Body Hold (feat. Serengeti) [web single] (08:38)

Издатель (лейбл): Arms and Sleepers
Аудиокодек: FLAC (*.flac)
Тип рипа: tracks
Источник (релизер): bandcamp
Треклист:
01. Hollow Body Hold (feat. Serengeti) [4:19]
02. Hollow Body Hold (Instrumental) [4:19]

Лог проверки качества

Lossless Audio Checker 2.0.7 logfile from Sunday 29 March 2020 10:29:42 PM
File: F:\Мои Раздачи\Arms and Sleepers\Singles & bonus tracks\2016 - Hollow Body Hold (feat. Serengeti) [web single]\01 - Hollow Body Hold (feat. Serengeti).flacResult: Clean
File: F:\Мои Раздачи\Arms and Sleepers\Singles & bonus tracks\2016 - Hollow Body Hold (feat. Serengeti) [web single]\02 - Hollow Body Hold (Instrumental).flacResult: Clean

2017 - Grand Theft Finale (Inauguration Special) [web single] (07:29)

Издатель (лейбл): Arms and Sleepers
Аудиокодек: FLAC (*.flac)
Тип рипа: tracks
Источник (релизер): bandcamp
Треклист:
01. Grand Theft Finale [2:12]
02. Grand Theft Finale (slo) [5:17]

Лог проверки качества

Lossless Audio Checker 2.0.7 logfile from Sunday 29 March 2020 10:31:43 PM
File: F:\Мои Раздачи\Arms and Sleepers\Singles & bonus tracks\2017 - Grand Theft Finale (Inauguration Special) [web single]\01 - Grand Theft Finale.flacResult: Clean
File: F:\Мои Раздачи\Arms and Sleepers\Singles & bonus tracks\2017 - Grand Theft Finale (Inauguration Special) [web single]\02 - Grand Theft Finale (slo).flacResult: Clean

2017 - Love Is Everywhere [web single] (08:46)

Издатель (лейбл): Arms and Sleepers
Аудиокодек: FLAC (*.flac)
Тип рипа: tracks
Источник (релизер): bandcamp
Треклист:
01. Love Is Everywhere [2:56]
02. Love Is Everywhere (Summer Edit) [5:50]

Лог проверки качества

Lossless Audio Checker 2.0.7 logfile from Sunday 29 March 2020 10:32:47 PM
File: F:\Мои Раздачи\Arms and Sleepers\Singles & bonus tracks\2017 - Love Is Everywhere [web single]\01 - Love is Everywhere.flacResult: Clean
File: F:\Мои Раздачи\Arms and Sleepers\Singles & bonus tracks\2017 - Love Is Everywhere [web single]\02 - Love is Everywhere (Summer Edit).flacResult: Clean

2018 - I Miss The Melody Of [web single] (04:41)

Издатель (лейбл): Arms and Sleepers
Аудиокодек: FLAC (*.flac)
Тип рипа: tracks
Источник (релизер): bandcamp
Треклист:
01. I Miss The Melody Of [4:41]

Лог проверки качества

Lossless Audio Checker 2.0.7 logfile from Sunday 29 March 2020 10:33:58 PM
File: F:\Мои Раздачи\Arms and Sleepers\Singles & bonus tracks\2018 - I Miss The Melody Of [web single]\01 - I Miss The Melody Of.flacResult: Clean
Внимание! Для получения полной дискографии необходимо скачать также данную раздачу. Обе попадают в одну и ту же папку.
[protorrent.xyz]_t-4627029
Torrent: Registered ·  [ 2020-03-30 10:05 ] ·  4d8dcece769f45ab843b12ab0312f1e93d6df83e

138 KB

Status: checked
Completed: 0 times
Size: 5.65 GB
Rating: 
(Votes: 0)
Say thanks: 0  Thanks
 
Похожие темы
[Profile] [PM]
Display posts from previous:    
Reply to topic

The time now is: Today 12:17

All times are GMT + 7 Hours



You cannot post new topics in this forum
You cannot reply to topics in this forum
You cannot edit your posts in this forum
You cannot delete your posts in this forum
You cannot vote in polls in this forum
You cannot attach files in this forum
You can download files in this forum