Register · 
Username: Password:
 ·  Forgot password?

Дом 2: Проклятая обитель / Дом 2: Второй этаж / House II: The Second Story (Этан Уайли / Ethan Wiley) [1987, США, ужасы, фэнтези, комедия, HDRip] AVO (Сергей Визгунов) + Original Eng

Reply to topic
DL-List and Torrent activity [Update пиров]
Size:  1.45 GB   |    Registered:  2 months 8 days   |    Completed:  0 times

Seeder not seen: Never

 
   
 
 
 
Author Message

god56 ®

Gender:

Longevity: 6 years 8 months

Posts: 28197

Post 28-Mar-2020 05:50

[Quote]

Дом 2: Проклятая обитель / Дом 2: Второй этаж / House II: The Second Story
Страна: США
Жанр: ужасы, фэнтези, комедия
Год выпуска: 1987
Продолжительность: 01:27:46
Перевод: Авторский (одноголосый закадровый) Сергей Визгунов
Субтитры: нет
Оригинальная аудиодорожка: Английский
Режиссер: Этан Уайли / Ethan Wiley
В ролях: Ари Гросс, Джонатан Старк, Ройал Дэно, Билл Мехер, Джон Ратценбергер, Лар Линкольн, Эми Ясбек, Грегори Уэлкотт, Дуайр Браун
Описание: Молодому парню по имени Джесси достается в наследство старый обветшалый дом. Не смотря на то, что лучшие времена этого дома уже давно прошли, Джесси решает не продавать дом, а поселиться в нем. Вместе со своим другом Чарли, Джесси попадает в водоворот странных событий, которые творятся в старом доме. Всему виной древний хрустальный череп, который обладает огромной магической силой, он может поднимать из могил мертвых и творить прочие, казалось бы, невозможные вещи. Этим черепом пытается завладеть нечисть всех мастей и Джесси ей при этом сильно мешает...
Сэмпл: http://multi-up.com/1258207
Качество видео: HDRip (Исходник Дом 2 Проклятая обитель (House II The Second Story) 1987 BDRip 1080p.mkv)
Формат видео: AVI
Видео: XviD 73, 720x384, (1,85:1), 24,000 fps, 1782 Кбит/с, 8 бит, 0.27 bit/pixel
Аудио: Русский (АС3, 2 ch (Front: L R), 48,0 KHz, 192 Kbps) Сергей Визгунов
Аудио 2: Английский (АС3, 6 ch (Front: L C R, Side: L R, LFE), 48,0 KHz, 384 Kbps Оригинал

MediaInfo

ОбщееПолное имя                               : E:\Дом 2  Проклятая обитель  (ужасы, фэнтези, комедия 1987 год).aviФормат                                   : AVIФормат/Информация                        : Audio Video InterleaveРазмер файла                             : 1,45 ГбайтПродолжительность                        : 1 ч. 27 м.Общий поток                              : 2372 Кбит/секПрограмма кодирования                    : VirtualDubMod 1.5.10.2 (build 2540/release)Библиотека кодирования                   : VirtualDubMod build 2540/release
ВидеоИдентификатор : 0Формат : MPEG-4 VisualПрофиль формата : Advanced Simple@L5Параметр BVOP формата : 2Параметр QPel формата : НетПараметр GMC формата : Без точки переходаПараметр матрицы формата : ВыборочнаяИдентификатор кодека : XVIDИдентификатор кодека/Подсказка : XviDПродолжительность : 1 ч. 27 м.Битрейт : 1782 Кбит/секШирина : 720 пикселейВысота : 384 пикселяСоотношение сторон : 1,85:1Частота кадров : 24,000 кадра/секЦветовое пространство : YUVСубдискретизация насыщенности : 4:2:0Битовая глубина : 8 битТип развёртки : ПрогрессивнаяМетод сжатия : С потерямиБит/(Пиксели*Кадры) : 0.269Размер потока : 1,09 Гбайт (75%)Библиотека кодирования : XviD 73
Аудио #1Идентификатор : 1Формат : AC-3Формат/Информация : Audio Coding 3Расширение режима : CM (complete main)Параметр Endianness формата : BigИдентификатор кодека : 2000Продолжительность : 1 ч. 27 м.Вид битрейта : ПостоянныйБитрейт : 192 Кбит/секКаналы : 2 каналаРасположение каналов : Front: L RЧастота : 48,0 КГцЧастота кадров : 31,250 кадров/сек (1536 spf)Метод сжатия : С потерямиРазмер потока : 121 Мбайт (8%)Выравнивание : Разделение по промежуткамПродолжительность промежутка : 42 мс. (1,00 видеокадр)Время предзагрузки промежутка : 500 мс.
Аудио #2Идентификатор : 2Формат : AC-3Формат/Информация : Audio Coding 3Расширение режима : CM (complete main)Параметр Endianness формата : BigИдентификатор кодека : 2000Продолжительность : 1 ч. 27 м.Вид битрейта : ПостоянныйБитрейт : 384 Кбит/секКаналы : 6 каналовРасположение каналов : Front: L C R, Side: L R, LFEЧастота : 48,0 КГцЧастота кадров : 31,250 кадров/сек (1536 spf)Метод сжатия : С потерямиРазмер потока : 241 Мбайт (16%)Выравнивание : Разделение по промежуткамПродолжительность промежутка : 42 мс. (1,00 видеокадр)Время предзагрузки промежутка : 500 мс.

Скриншот c названием фильма

Скриншоты

[protorrent.xyz]_t-5871508
Torrent: Registered ·  [ 2020-03-28 05:50 ] ·  270e4c4fddc0c17dd8eae61ebb7c376872e5f44e

15 KB

Status: checked
Completed: 0 times
Size: 1.45 GB
Rating: 
(Votes: 0)
Say thanks: 0  Thanks
 
Похожие темы
[Profile] [PM]
Display posts from previous:    
Reply to topic

The time now is: Today 13:52

All times are GMT + 7 Hours



You cannot post new topics in this forum
You cannot reply to topics in this forum
You cannot edit your posts in this forum
You cannot delete your posts in this forum
You cannot vote in polls in this forum
You cannot attach files in this forum
You can download files in this forum