Register · 
Username: Password:
 ·  Forgot password?

Hardwell & the Metropole Orkest Present: Symphony - The global revolution of Dance [2018, Progressive house, Pop, WEB-DL, 1080p]

Reply to topic
DL-List and Torrent activity [Update пиров]
Size:  8.36 GB   |    Registered:  2 months 10 days   |    Completed:  0 times

Seeder not seen: Never

 
   
 
 
 
Author Message

god56 ®

Gender:

Longevity: 6 years 8 months

Posts: 28201

Post 28-Mar-2020 04:40

[Quote]

Hardwell & the Metropole Orkest Present: Symphony - The global revolution of Dance
Жанр: Progressive house, Pop
Продолжительность: 02:05:17
Год выпуска: 2018
Описание: 18.10.2018, Ziggo Dome Amsterdam.
A once in a lifetime experience where Hardwell and the Metropole Orkest took you through an epic journey of 30 years dance music.
A special all ages concert where we move from dance music of the late ‘80s till the mega hits of today.

Качество: Web-DL
Разрешение видео/развертка: 1080p
Контейнер: MKV
Видео кодек: H.264
Аудио кодек: AC3
Видео: AVC, 1920x1080 (16:9), 25.000 fps, 9 321 kb/s
Аудио: E-AC-3, 48.0 kHz, 2 ch, 224 kb/s
Треклист
  • I Feel Love by Donna Summer
  • Sweet Dreams by Eurythmics
  • It's Like That by Run DMC
  • Thriller by Michael Jackson
  • Can You Feel It by Todd Terry pres. CLS
  • Strings Of Life by Rhythm Is Rhythm
  • Show Me Love by Robin S
  • Insomnia by Faithless
  • Mary Go Wild by Grooveyard
  • House Of God (Acapella) by w/ D.H.S.
  • The Power (Acapella) by w/ Snap!
  • Push The Feeling On by Nightcrawlers
  • Music Sounds Better With You by Stardust
  • Pump Up The Jam (Acapella) by w/ Technotronic
  • Gypsy Woman (She's Homeless) by Crystal Waters
  • Pump Up The Jam by w/ Technotronic
  • Infinity by Guru Josh Project
  • Rhythm Of The Night (Acapella) by w/ Corona
  • Rhythm Is A Dancer by Snap!
  • Smack My Bitch Up by The Prodigy
  • The Realm (Acapella) by w/ Chantal
  • Born Slippy by Underworld
  • Children by Robert Miles
  • The Night Train by Kadoc
  • Silence by Delerium ft. Sarah McLachlan
  • Cafe Del Mar by Energy 52
  • The Man With The Red Face by Laurent Garnier
  • Summer Jam (Acapella) by w/ The Underdog Project
  • Sky And Sand by Paul Kalkbrenner ft. Fritz Kalkbrenner
  • Body Language by M.A.N.D.Y. vs. Booka Shade
  • Satisfaction by Benny Benassi pres. The Biz
  • Calabria by ENUR ft. Natasja
  • At Night by Shakedown
  • Lola's Theme by The Shapeshifters
  • Pjanoo by Eric Prydz
  • Put Your Hands Up For Detroit by Fedde Le Grand
  • Alright by Red Carpet
  • Lethal Industry by Tiësto
  • Love Don't Let Me Go by David Guetta ft. Chris Willis
  • You've Got The Love (Mark Knight Remix) by Florence + The Machine
  • Unknown by Unknown
  • Superstring by Cygnus X
  • As The Rush Comes by Motorcycle
  • Universal Nation by Push
  • Adagio For Strings by Tiësto
  • Kernkraft 400 by Zombie Nation
  • Get Lucky by Daft Punk ft. Pharrell Williams & Nile Rodgers
  • This Girl by Kungs vs. Cookin' On 3 Burners ft. Kylie Auldist
  • One (Your Name) by Swedish House Mafia ft. Pharrell Williams
  • Leave The World Behind by Axwell, Sebastian Ingrosso, Steve Angello & Laidback Luke ft. Deborah Cox
  • Levels by Avicii
  • Bromance by Tim Berg When Love Takes Over by David Guetta ft. Kelly Rowland
  • I Gotta Feeling by Black Eyed Peas
  • Feel So Close by Calvin Harris
  • A Sky Full Of Stars (Prod. by Avicii) (Hardwell Remix) by Coldplay
  • Young Again by Hardwell ft. Chris Jones
  • Something Just Like This by The Chainsmokers & Coldplay
  • Something Just Like This (Dash Berlin Rework) by w/ The Chainsmokers & Coldplay
  • We Are One (Instrumental Mix) by Hardwell ft. Alexander Tidebrink
  • How Deep Is Your Love (Acapella) by w/ Calvin Harris & Disciples ft. Ina Wroldsen
  • Epic by Sandro Silva & Quintino
  • Wake Me Up by Avicii ft. Aloe Blacc
  • Don't Stop The Madness by Hardwell & W&W ft. Fatman Scoop
  • Spaceman by Hardwell
  • Toca's Miracle by w/ Coco Star vs. Fragma
  • Rocket by w/ W&W & Blasterjaxx
  • Animals by Martin Garrix
  • Apollo (Lucky Date Remix) by Hardwell ft. Amba Shepherd
  • This Is What It Feels Like (W&W Remix) by Armin van Buuren ft. Trevor Guthrie
  • Dominator by Armin van Buuren vs. Human Resource
  • Tremor (Sensation 2014 Anthem) by Dimitri Vegas & Like Mike & Martin Garrix
  • Conquerors by Hardwell & Metropole Orkest

    MediaInfo

    GeneralUnique ID                   : 158317279941547083167498228061456935942 (0x771ACC8C44E213E41AB5074F2761AC06)Complete name               : T:\web-dl\Hardwell.And.Metropole.Orkest.Presents.Symphony.The.Global.Revolution.of.Dance.2018.1080p.AMZN.WEB-DL.H264.EAC3-LittleDeng.mkvFormat                      : MatroskaFormat version              : Version 4File size                   : 8.36 GiBDuration                    : 2 h 5 minOverall bit rate            : 9 547 kb/sEncoded date                : UTC 2020-02-03 11:07:04Writing application         : mkvmerge v31.0.0 ('Dolores In A Shoestand') 64-bitWriting library             : libebml v1.3.6 + libmatroska v1.4.9
    VideoID : 1Format : AVCFormat/Info : Advanced Video CodecFormat profile : High@L4Format settings : CABAC / 4 Ref FramesFormat settings, CABAC : YesFormat settings, Reference : 4 framesCodec ID : V_MPEG4/ISO/AVCDuration : 2 h 5 minBit rate mode : ConstantBit rate : 9 321 kb/sNominal bit rate : 10 000 kb/sWidth : 1 920 pixelsHeight : 1 080 pixelsDisplay aspect ratio : 16:9Frame rate mode : ConstantFrame rate : 25.000 FPSColor space : YUVChroma subsampling : 4:2:0Bit depth : 8 bitsScan type : ProgressiveBits/(Pixel*Frame) : 0.180Stream size : 8.16 GiB (98%)Default : YesForced : NoColor range : LimitedColor primaries : BT.709Transfer characteristics : BT.709Matrix coefficients : BT.709
    AudioID : 2Format : E-AC-3Format/Info : Enhanced AC-3Commercial name : Dolby Digital PlusCodec ID : A_EAC3Duration : 2 h 5 minBit rate mode : ConstantBit rate : 224 kb/sChannel(s) : 2 channelsChannel layout : L RSampling rate : 48.0 kHzFrame rate : 31.250 FPS (1536 SPF)Compression mode : LossyStream size : 201 MiB (2%)Service kind : Complete MainDefault : YesForced : No
    TextID : 3Format : UTF-8Codec ID : S_TEXT/UTF8Codec ID/Info : UTF-8 Plain TextDuration : 2 h 4 minBit rate : 38 b/sCount of elements : 891Stream size : 35.6 KiB (0%)Title : SDHLanguage : EnglishDefault : NoForced : No

    Скриншоты


    [protorrent.xyz]_t-5847769
    Torrent: Registered ·  [ 2020-03-28 04:40 ] ·  9e0a5d52feaa343967f364ebcf162a4355eb759b

    42 KB

    Status: checked
    Completed: 0 times
    Size: 8.36 GB
    Rating: 
    (Votes: 0)
    Say thanks: 0  Thanks
     
    Похожие темы
  • [Profile] [PM]
    Display posts from previous:    
    Reply to topic

    The time now is: Today 16:54

    All times are GMT + 7 Hours



    You cannot post new topics in this forum
    You cannot reply to topics in this forum
    You cannot edit your posts in this forum
    You cannot delete your posts in this forum
    You cannot vote in polls in this forum
    You cannot attach files in this forum
    You can download files in this forum