Register · 
Username: Password:
 ·  Forgot password?

[TR24][OF] D.Dahlinger - Exquisite Spirits, [Cold Busted: BUSTED164], 2018, (Beats, Broken Beat, Chill-Hop, Lo-Fi)

Reply to topic
DL-List and Torrent activity [Update пиров]
Size:  403 MB   |    Registered:  2 months 9 days   |    Completed:  0 times

Seeder not seen: Never

 
   
 
 
 
Author Message

Nestor_13 ®

Gender:

Longevity: 6 years 8 months

Posts: 23904

Post 28-Mar-2020 04:40

[Quote]

D.Dahlinger — Exquisite Spirits (2018, [url=tracker.php?nm=Cold%20Busted]Cold Busted[/url])- Жанр: Electronic
Стиль: Beats, Broken Beat, Chill-Hop, Lo-Fi
Формат: WEB
Год издания: 2018
Издатель (лейбл): Cold Busted
Номер по каталогу: BUSTED164
Страна исполнителя (группы): USA
Формат записи/Источник записи: [TR24][OF]
Разрядность: 24/44,1
Формат: WAV (flac.ape.wv)
Количество каналов: 2.0
Контейнер: FLAC (*.flac)
Тип рипа: tracks
Продолжительность: 00:35:35
Источник: bandcamp, собственное приобретение
Наличие сканов в содержимом раздачи: только обложка
-Треклист:
01. D.Dahlinger - Rise Early [02:36]
02. D.Dahlinger - B [01:57]
03. D.Dahlinger - Faceslap Aspiration [02:10]
04. D.Dahlinger - Too Many Delectable Things [02:19]
05. D.Dahlinger - Color Scheme 13 [04:33]
06. D.Dahlinger - Drums of Dol [02:09]
07. D.Dahlinger - Wind Back Up [04:22]
08. D.Dahlinger - Distil [03:31]
09. D.Dahlinger - Anyone's Out-There [04:14]
10. D.Dahlinger - 2nd First Train [02:58]
11. D.Dahlinger - Mellolabye [04:46]-Полезные ссылки:
  • MusicBrainz: D.Dahlinger — Exquisite Spirits
  • Bandcamp: D.Dahlinger — Exquisite Spirits-

    Скриншот спектра частот

    Замер динамического диапазона (DRM)

    foobar2000 1.3.17 / Dynamic Range Meter 1.1.1log date: 2020-02-08 16:55:32
    --------------------------------------------------------------------------------Analyzed: D.Dahlinger / Exquisite Spirits--------------------------------------------------------------------------------
    DR Peak RMS Duration Track--------------------------------------------------------------------------------DR5 -0.52 dB -6.57 dB 2:36 01-Rise EarlyDR5 -0.44 dB -6.19 dB 1:57 02-BDR5 -0.36 dB -6.65 dB 2:10 03-Faceslap AspirationDR6 -0.53 dB -8.15 dB 2:20 04-Too Many Delectable ThingsDR5 -0.44 dB -6.47 dB 4:34 05-Color Scheme 13DR5 -0.40 dB -6.96 dB 2:10 06-Drums of DolDR7 -0.54 dB -9.04 dB 4:23 07-Wind Back UpDR6 -0.44 dB -7.20 dB 3:32 08-DistilDR5 -0.48 dB -7.09 dB 4:15 09-Anyone's Out-ThereDR5 -0.53 dB -7.05 dB 2:59 10-2nd First TrainDR7 -0.50 dB -9.00 dB 4:46 11-Mellolabye--------------------------------------------------------------------------------
    Number of tracks: 11Official DR value: DR5
    Samplerate: 44100 HzChannels: 2Bits per sample: 24Bitrate: 1516 kbpsCodec: FLAC================================================================================
    [protorrent.xyz]_t-5847840
    Torrent: Registered ·  [ 2020-03-28 04:40 ] ·  d26cefa4aafbb669f4db07f535217623c6b48f85

    17 KB

    Status: checked
    Completed: 0 times
    Size: 403 MB
    Rating: 
    (Votes: 0)
    Say thanks: 0  Thanks
     
    Похожие темы
  • [Profile] [PM]
    Display posts from previous:    
    Reply to topic

    The time now is: Today 13:57

    All times are GMT + 7 Hours



    You cannot post new topics in this forum
    You cannot reply to topics in this forum
    You cannot edit your posts in this forum
    You cannot delete your posts in this forum
    You cannot vote in polls in this forum
    You cannot attach files in this forum
    You can download files in this forum