Register · 
Username: Password:
 ·  Forgot password?

[TR24][OF] Winterblood - Hiraeth - 2019 (Dark Ambient, Drone)

Reply to topic
DL-List and Torrent activity [Update пиров]
Size:  1.37 GB   |    Registered:  2 months 9 days   |    Completed:  0 times

Seeder not seen: Never

 
   
 
 
 
Author Message

Nestor_13 ®

Gender:

Longevity: 6 years 8 months

Posts: 23904

Post 28-Mar-2020 04:40

[Quote]

Winterblood / Hiraeth
Формат записи/Источник записи: [TR24][OF]
Наличие водяных знаков: Нет
Год издания/переиздания диска: 2019
Жанр: Dark Ambient, Drone
Продолжительность: 03:10:07
Наличие сканов в содержимом раздачи: Только обложка альбома
Треклист:
01. I [30:52]
02. II [34:20]
03. III [31:59]
04. IV [31:33]
05. V [31:20]
06. VI [30:04]
Контейнер: FLAC (*.flac)
Тип рипа: tracks
Разрядность: 24/44,1
Формат: WAV (flac.ape.wv)
Количество каналов: 2.0
Источник (релизер): red / http://winterblood78.bandcamp.com/album/hiraeth

Лог проверки качества

foobar2000 1.3.19 / Замер динамического диапазона (DR) 1.1.1Дата отчёта:  2020-02-11 21:23:07
--------------------------------------------------------------------------------Анализ: Winterblood / Hiraeth--------------------------------------------------------------------------------
DR Пики RMS Продолжительность трека--------------------------------------------------------------------------------DR10 -0.10 дБ -12.41 дБ 30:52 01-IDR10 -0.10 дБ -13.59 дБ 34:20 02-IIDR11 -0.10 дБ -12.68 дБ 31:59 03-IIIDR10 -0.10 дБ -12.21 дБ 31:33 04-IVDR10 -0.10 дБ -11.92 дБ 31:20 05-VDR10 -0.10 дБ -12.28 дБ 30:04 06-VI--------------------------------------------------------------------------------
Количество треков: 6Реальные значения DR: DR10
Частота: 44100 ГцКаналов: 2Разрядность: 24Битрейт: 949 кбит/сКодек: FLAC================================================================================

Скриншот спектра частот

[protorrent.xyz]_t-5849343
Torrent: Registered ·  [ 2020-03-28 04:40 ] ·  8d863e4e51151a2ac1bfbe0021ace1ecee40678e

14 KB

Status: checked
Completed: 0 times
Size: 1.37 GB
Rating: 
(Votes: 0)
Say thanks: 0  Thanks
 
Похожие темы
[Profile] [PM]
Display posts from previous:    
Reply to topic

The time now is: Today 14:17

All times are GMT + 7 Hours



You cannot post new topics in this forum
You cannot reply to topics in this forum
You cannot edit your posts in this forum
You cannot delete your posts in this forum
You cannot vote in polls in this forum
You cannot attach files in this forum
You can download files in this forum