Register · 
Username: Password:
 ·  Forgot password?

[TR24][OF] Jonathan E. Blake - Alaska - 2020 (Ambient)

Reply to topic
DL-List and Torrent activity [Update пиров]
Size:  605 MB   |    Registered:  2 months 9 days   |    Completed:  0 times

Seeder not seen: Never

 
   
 
 
 
Author Message

Nestor_13 ®

Gender:

Longevity: 6 years 8 months

Posts: 23904

Post 28-Mar-2020 04:40

[Quote]


Jonathan E. Blake

Alaska



• Формат записи | Источник записи: [TR24][OF]
• Наличие водяных знаков: Нет
• Год издания релиза: 2020
• Жанр: Ambient
• Лейбл: SINE MUSIC
• Продолжительность: 01:03:58
• Источник: internet
• WEB релиз: ссылка
• Контейнер: FLAC (*.flac)
• Тип рипа: tracks
• Разрядность: 24/44,1
• Формат: WAV (flac.ape.wv)
• Количество каналов: 2.0
• Наличие сканов: front
Tracklist:
01 - Alaska 01 (00:05:53)
02 - Alaska 02 (00:07:25)
03 - Alaska 03 (00:06:49)
04 - Alaska 04 (00:07:24)
05 - Alaska 05 (00:07:27)
06 - Alaska 06 (00:06:40)
07 - Alaska 07 (00:05:53)
08 - Alaska 08 (00:07:21)
09 - Alaska 09 (00:09:02)
-

• Замер динамического диапазона •

foobar2000 1.4.2 / Dynamic Range Meter 1.1.1log date: 2020-02-22 12:54:10
--------------------------------------------------------------------------------Analyzed: Jonathan E. Blake / Alaska--------------------------------------------------------------------------------
DR Peak RMS Duration Track--------------------------------------------------------------------------------DR10 -0.50 dB -14.19 dB 5:53 01-Alaska 01DR7 -1.32 dB -12.85 dB 7:26 02-Alaska 02DR8 -0.50 dB -10.87 dB 6:50 03-Alaska 03DR11 -0.60 dB -13.73 dB 7:25 04-Alaska 04DR10 -0.50 dB -13.29 dB 7:27 05-Alaska 05DR8 -0.71 dB -12.28 dB 6:40 06-Alaska 06DR11 -0.50 dB -14.26 dB 5:54 07-Alaska 07DR8 -1.38 dB -11.72 dB 7:21 08-Alaska 08DR9 -0.52 dB -12.48 dB 9:02 09-Alaska 09--------------------------------------------------------------------------------
Number of tracks: 9Official DR value: DR9
Samplerate: 44100 HzChannels: 2Bits per sample: 24Bitrate: 1247 kbpsCodec: FLAC================================================================================
-
[protorrent.xyz]_t-5854693
Torrent: Registered ·  [ 2020-03-28 04:40 ] ·  fc71a0216ddd6cc343e19cce893937fab58a53cb

13 KB

Status: checked
Completed: 0 times
Size: 605 MB
Rating: 
(Votes: 0)
Say thanks: 0  Thanks
 
Похожие темы
[Profile] [PM]
Display posts from previous:    
Reply to topic

The time now is: Today 12:12

All times are GMT + 7 Hours



You cannot post new topics in this forum
You cannot reply to topics in this forum
You cannot edit your posts in this forum
You cannot delete your posts in this forum
You cannot vote in polls in this forum
You cannot attach files in this forum
You can download files in this forum