Register · 
Username: Password:
 ·  Forgot password?

[TR24][OF] Session Victim - Needledrop - 2020 (Deep House | Nu-Disco)

Reply to topic
DL-List and Torrent activity [Update пиров]
Size:  397 MB   |    Registered:  2 months 8 days   |    Completed:  0 times

Seeder not seen: Never

 
   
 
 
 
Author Message

Nestor_13 ®

Gender:

Longevity: 6 years 8 months

Posts: 23904

Post 28-Mar-2020 03:30

[Quote]


Session Victim

Needledrop



• Формат записи | Источник записи: [TR24][OF]
• Наличие водяных знаков: Нет
• Год издания релиза: 2020
• Жанр: Deep House | Nu-Disco
• Лейбл: Night Time Stories
• Продолжительность: 00:37:04
• Источник: internet
• WEB релиз: ссылка
• Контейнер: FLAC (*.flac)
• Тип рипа: tracks
• Разрядность: 24/44,1
• Формат: WAV (flac.ape.wv)
• Количество каналов: 2.0
• Наличие сканов: front
Tracklist:
01 - Bad Weather Mates (00:02:47)
02 - The Pain (00:03:52)
03 - Made Me Fly (00:03:16)
04 - Jazzbeat 7 (00:03:06)
05 - No Sky, Blue Sound (00:03:01)
06 - Waller and Pierce (00:03:11)
07 - Needledrop (00:04:33)
08 - Isle of Taste (00:03:52)
09 - Cold Chills (00:03:52)
10 - Still High (00:01:32)
11 - Glimmer (00:03:58)
--

• Замер динамического диапазона ~ DR 10 •

foobar2000 1.4.2 / Dynamic Range Meter 1.1.1log date: 2020-03-11 19:57:55
--------------------------------------------------------------------------------Analyzed: Session Victim / Needledrop--------------------------------------------------------------------------------
DR Peak RMS Duration Track--------------------------------------------------------------------------------DR10 -0.12 dB -10.97 dB 2:47 01-Bad Weather MatesDR8 -0.10 dB -10.91 dB 3:53 02-The PainDR10 -0.10 dB -12.81 dB 3:16 03-Made Me FlyDR9 -0.10 dB -10.82 dB 3:07 04-Jazzbeat 7DR10 -0.10 dB -12.38 dB 3:01 05-No Sky, Blue SoundDR11 -0.10 dB -11.96 dB 3:11 06-Waller and PierceDR10 -0.10 dB -13.52 dB 4:33 07-NeedledropDR10 -0.10 dB -11.87 dB 3:52 08-Isle of TasteDR12 -0.10 dB -14.36 dB 3:53 09-Cold ChillsDR11 -0.10 dB -12.75 dB 1:32 10-Still HighDR9 -0.10 dB -11.07 dB 3:58 11-Glimmer--------------------------------------------------------------------------------
Number of tracks: 11Official DR value: DR10
Samplerate: 44100 HzChannels: 2Bits per sample: 24Bitrate: 1536 kbpsCodec: FLAC================================================================================
-
[protorrent.xyz]_t-5864387
Torrent: Registered ·  [ 2020-03-28 03:30 ] ·  814ec287b0340636398fffb4173529b8c66be76a

17 KB

Status: checked
Completed: 0 times
Size: 397 MB
Rating: 
(Votes: 0)
Say thanks: 0  Thanks
 
Похожие темы
[Profile] [PM]
Display posts from previous:    
Reply to topic

The time now is: Today 12:34

All times are GMT + 7 Hours



You cannot post new topics in this forum
You cannot reply to topics in this forum
You cannot edit your posts in this forum
You cannot delete your posts in this forum
You cannot vote in polls in this forum
You cannot attach files in this forum
You can download files in this forum