Register · 
Username: Password:
 ·  Forgot password?

[TR24][OF] Fritz Kalkbrenner - True Colours - 2020 (Deep House | Downtempo)

Reply to topic
DL-List and Torrent activity [Update пиров]
Size:  711 MB   |    Registered:  2 months 8 days   |    Completed:  0 times

Seeder not seen: Never

 
   
 
 
 
Author Message

Nestor_13 ®

Gender:

Longevity: 6 years 8 months

Posts: 23904

Post 28-Mar-2020 03:30

[Quote]


Fritz Kalkbrenner

True Colours



• Формат записи | Источник записи: [TR24][OF]
• Наличие водяных знаков: Нет
• Год издания релиза: 2020
• Жанр: Deep House | Downtempo
• Лейбл: BMG Rights Management GmbH
• Продолжительность: 01:02:52
• Источник: internet
• WEB релиз: ссылка
• Контейнер: FLAC (*.flac)
• Тип рипа: tracks
• Разрядность: 24/44,1
• Формат: WAV (flac.ape.wv)
• Количество каналов: 2.0
• Наличие сканов: front
Tracklist:
01 - Good Things (00:03:56)
02 - Bright (00:04:53)
03 - Kings & Queens (00:03:43)
04 - One Day at A Time (00:04:30)
05 - Daylight Is Falling (00:03:53)
06 - White Plains (00:04:40)
07 - Golden (00:04:09)
08 - About Face (00:03:58)
09 - Last Summer (00:04:37)
10 - Uptown (00:05:30)
11 - Where the Roads Collide (00:04:54)
12 - A Change Is Gonna Come (00:09:25)
13 - Just the One (00:04:38)
--

• Замер динамического диапазона ~ DR 5 •

foobar2000 1.4.2 / Замер динамического диапазона (DR) 1.1.1Дата отчёта:  2020-03-20 10:51:16
--------------------------------------------------------------------------------Анализ: Fritz Kalkbrenner / True Colours--------------------------------------------------------------------------------
DR Пики RMS Продолжительность трека--------------------------------------------------------------------------------DR5 -0.44 дБ -7.68 дБ 3:56 01-Good ThingsDR7 -0.44 дБ -8.90 дБ 4:54 02-BrightDR5 -0.43 дБ -7.17 дБ 3:43 03-Kings & QueensDR5 -0.44 дБ -7.84 дБ 4:31 04-One Day at A TimeDR5 -0.44 дБ -7.25 дБ 3:53 05-Daylight Is FallingDR6 -0.44 дБ -8.33 дБ 4:41 06-White PlainsDR6 -0.44 дБ -7.45 дБ 4:09 07-GoldenDR6 -0.44 дБ -8.20 дБ 3:58 08-About FaceDR5 -0.44 дБ -8.34 дБ 4:37 09-Last SummerDR6 -0.44 дБ -8.03 дБ 5:31 10-UptownDR5 -0.43 дБ -7.58 дБ 4:55 11-Where the Roads CollideDR6 -0.43 дБ -8.59 дБ 9:26 12-A Change Is Gonna ComeDR5 -0.43 дБ -7.58 дБ 4:39 13-Just the One--------------------------------------------------------------------------------
Количество треков: 13Реальные значения DR: DR5
Частота: 44100 ГцКаналов: 2Разрядность: 24Битрейт: 1440 кбит/сКодек: FLAC================================================================================
-
[protorrent.xyz]_t-5868370
Torrent: Registered ·  [ 2020-03-28 03:30 ] ·  98aa00798b462f8e0d10c4c942b63912ea6737ee

15 KB

Status: checked
Completed: 0 times
Size: 711 MB
Rating: 
(Votes: 0)
Say thanks: 0  Thanks
 
Похожие темы
[Profile] [PM]
Display posts from previous:    
Reply to topic

The time now is: Today 12:09

All times are GMT + 7 Hours



You cannot post new topics in this forum
You cannot reply to topics in this forum
You cannot edit your posts in this forum
You cannot delete your posts in this forum
You cannot vote in polls in this forum
You cannot attach files in this forum
You can download files in this forum