Register · 
Username: Password:
 ·  Forgot password?

Кричащая Мими / Кричащая женщина / Screaming Mimi (Герд Освальд / Gerd Oswald) [1958, США, триллер, драма, фильм-нуар, DVDRip-AVC] VO (Andy Green) + Original Eng

Reply to topic
DL-List and Torrent activity [Update пиров]
Size:  1.35 GB   |    Registered:  2 months 2 days   |    Completed:  1 time

Seeder not seen: 1 month 5 days

 
   
 
 
 
Author Message

Andrew1225 ®

Gender:

Longevity: 6 years 8 months

Posts: 19517

Post 26-Mar-2020 11:15

[Quote]

Кричащая Мими / Кричащая женщина / Screaming Mimi
Страна: США
Студия: Columbia Pictures
Жанр: триллер, драма, фильм-нуар
Год выпуска: 1958
Продолжительность: 01:17:58
Перевод: Одноголосый закадровый (Andy Green)
Субтитры: нет
Оригинальная аудиодорожка: английский
Режиссер: Герд Освальд / Gerd Oswald
В ролях: Анита Экберг, Филип Кэри, Джипси Роуз Ли, Гарри Таунс, Линда Черни, Ромни Брент, Алан Гиффорд
Описание: Танцовщица Вирджиния Уэстон (Анита Экберг) после нападения на неё сумасшедшего с ножом оказывается в психиатрической клинике. Опеку над ней устанавливает психиатр (Гарри Таунз), который несколько месяцев спустя перевозит её в Сан-Франциско и устраивает на работу в ночной клуб. Там она знакомится с репортёром местной газеты «Дейли Таймс» (Филип Кэри), который проводя расследование убийств серийного убийцы, выясняет, что жертвы перед смертью получали статуэтку кричащей женщины...
Фильм поставлен по роману Фредерика Брауна «Кричащая Мими» (1949). По мотивам этого романа снят также фильм Дарио Ардженто «Птица с хрустальным оперением» (1970).
Доп. информация: Другие названия: "Балет страстей" (Бельгия), "Мими, королева стриптиза" (Греция), "Кричащая статуэтка" (Италия), "Белокурая Венера" (ФРГ)
Сэмпл: http://sendfile.su/1552100
Качество видео: DVDRip-AVC
Формат видео: MKV
Видео: MPEG4/ISO/AVC (H264) 720x464@853:464 (1.85:1) 23.976fps 1986 Kbps
Аудио: Dolby AC3 48000Hz 2ch stereo 224kbps [rus]
Аудио 2: Dolby AC3 48000Hz 2ch stereo 224kbps [eng]

MediaInfo

Unique ID                   : 204232210311015509016137390446898824941 (0x99A5B164D1DC955FB4C4416B104FC6ED)Complete name               : C:\Andy Green\Screaming.Mimi.1958.DVDRip.x264.mkvFormat                      : MatroskaFormat version              : Version 4 / Version 2File size                   : 1.35 GiBDuration                    : 1h 17mnOverall bit rate            : 2 484 KbpsEncoded date                : UTC 2020-03-25 14:03:40Writing application         : mkvmerge v6.6.0 ('The Edge Of The In Between') built on Dec  1 2013 17:55:00Writing library             : libebml v1.3.0 + libmatroska v1.4.1
VideoID : 1Format : AVCFormat/Info : Advanced Video CodecFormat profile : Main@L4Format settings, CABAC : YesFormat settings, ReFrames : 8 framesCodec ID : V_MPEG4/ISO/AVCDuration : 1h 17mnBit rate : 1 986 KbpsWidth : 720 pixelsHeight : 464 pixelsDisplay aspect ratio : 1.85:1Original display aspect rat : 1.85:1Frame rate mode : ConstantFrame rate : 23.976 (24000/1001) fpsColor space : YUVChroma subsampling : 4:2:0Bit depth : 8 bitsScan type : ProgressiveBits/(Pixel*Frame) : 0.248Stream size : 1.08 GiB (80%)Writing library : x264 core 142 r2479 dd79a61Encoding settings : cabac=1 / ref=8 / deblock=1:0:0 / analyse=0x1:0x131 / me=umh / subme=9 / psy=1 / psy_rd=1.00:0.00 / mixed_ref=1 / me_range=16 / chroma_me=1 / trellis=2 / 8x8dct=0 / cqm=0 / deadzone=21,11 / fast_pskip=1 / chroma_qp_offset=-2 / threads=3 / lookahead_threads=1 / sliced_threads=0 / nr=0 / decimate=1 / interlaced=0 / bluray_compat=0 / constrained_intra=0 / bframes=3 / b_pyramid=2 / b_adapt=2 / b_bias=0 / direct=3 / weightb=1 / open_gop=0 / weightp=2 / keyint=240 / keyint_min=24 / scenecut=40 / intra_refresh=0 / rc_lookahead=60 / rc=crf / mbtree=1 / crf=18.0 / qcomp=0.60 / qpmin=0 / qpmax=69 / qpstep=4 / vbv_maxrate=20000 / vbv_bufsize=25000 / crf_max=0.0 / nal_hrd=none / filler=0 / ip_ratio=1.40 / aq=1:1.00Default : YesForced : NoColor range : LimitedColor primaries : BT.601 NTSCTransfer characteristics : BT.709Matrix coefficients : BT.601
Audio #1ID : 2Format : AC-3Format/Info : Audio Coding 3Mode extension : CM (complete main)Format settings, Endianness : BigCodec ID : A_AC3Duration : 1h 17mnBit rate mode : ConstantBit rate : 224 KbpsChannel(s) : 2 channelsChannel positions : Front: L RSampling rate : 48.0 KHzFrame rate : 31.250 fps (1536 spf)Compression mode : LossyStream size : 125 MiB (9%)Language : RussianDefault : YesForced : No
Audio #2ID : 3Format : AC-3Format/Info : Audio Coding 3Mode extension : CM (complete main)Format settings, Endianness : BigCodec ID : A_AC3Duration : 1h 17mnBit rate mode : ConstantBit rate : 224 KbpsChannel(s) : 2 channelsChannel positions : Front: L RSampling rate : 48.0 KHzFrame rate : 31.250 fps (1536 spf)Compression mode : LossyStream size : 125 MiB (9%)Language : EnglishDefault : NoForced : No

Скриншоты

[protorrent.xyz]_t-5870935
Torrent: Registered ·  [ 2020-03-26 11:15 ] ·  c6a052f2659820d2472e3152cd3bd99ce9fb9e3f

28 KB

Status: checked
Completed: 1 times
Size: 1.35 GB
Rating: 
(Votes: 0)
Say thanks: 0  Thanks
 
Похожие темы
[Profile] [PM]
Display posts from previous:    
Reply to topic

The time now is: Today 05:11

All times are GMT + 7 Hours



You cannot post new topics in this forum
You cannot reply to topics in this forum
You cannot edit your posts in this forum
You cannot delete your posts in this forum
You cannot vote in polls in this forum
You cannot attach files in this forum
You can download files in this forum