Register · 
Username: Password:
 ·  Forgot password?

[SACD-R][OF] Henry Mancini - Hangin\' Out with Henry Mancini & Theme from "Z" and Other Film Music - 1974,1970/2019 (Easy Listening)

Reply to topic
DL-List and Torrent activity [Update пиров]
Size:  2.51 GB   |    Registered:  3 months 16 days   |    Completed:  0 times

Seeder not seen: Never

 
   
 
 
 
Author Message

ANTON1404 ®

Gender:

Longevity: 6 years 9 months

Posts: 20884

Post 16-Mar-2020 20:35

[Quote]

Henry Mancini / Hangin' Out with Henry Mancini & Theme from "Z" and Other Film Music
Формат записи/Источник записи: [SACD-R][OF]
Наличие водяных знаков: Нет
Год издания/переиздания диска: 1974,1970/2019
Жанр: Easy Listening
Издатель (лейбл): Vocalion
Продолжительность: 00:57:40, 00:57:46
Наличие сканов в содержимом раздачи: Только обложка альбома
Треклист:
Hangin' Out with Henry Mancini (1974)
01. MEDLEY: LOVE’S THEME (White)
soloist: Graham Young (trumpet)
– TSOP THE SOUND OF PHILADELPHIA (Gamble; Huff)
soloist: Don Menza (soprano sax)
02. THE GIRL FROM PETROVKA (Mancini)theme from the film
soloists: Frank Messina (accordion), Ralph Grierson (organ)
03. THE WHITE DAWN (Mancini) theme from the film
soloists: Art Smith (recorder), Ralph Grierson (organ)
04. THE ENTERTAINER (Joplin) theme from the film The Sting
soloists: Henry Mancini (piano), Dominic Fera (clarinet), Graham Young (cornet)
05. SONG FOR ANNA CHANSON D’ANNA (Popp)
soloist: Henry Mancini (piano)
06. THE SEX SYMBOL (Lai) theme from the TV movie
soloist: Henry Mancini (piano)
07. HANGIN’ OUT (Mancini) from the film 99 and 44/100% DEAD!
08. DOLCE (di Sao Paulo) soloist: Henry Mancini (piano)
09. THE THIEF WHO CAME TO DINNER (Mancini)theme from the film
10. THE STRIPPER (Rose) soloist: Shelly Manne (drums)
Theme from "Z" and Other Film Music (1970)
11. “Z” TO YELASTO PEDI (Theodorakis)
12. THE MOLLY MAGUIRES (Mancini)
13. JEAN (McKuen) from The Prime of Miss Jean Brodie
14. AIRPORT LOVE THEME (Newman)
15. RAINDROPS KEEP FALLIN’ ON MY HEAD (Bacharach; David) from Butch Cassidy and the Sundance Kid
16. AS TIME GOES BY (Hupfeld) from Casablanca
17. THE HILLS OF YESTERDAY (Mancini; Webster) love theme from The Molly Maguires
18. A MAN, A HORSE, A GUN (Cipriani)
19. LOVE THEME FROM THE ADVENTURERS (Jobim)
20. PATTON (Goldsmith)
Контейнер: ISO (*.iso)
Тип рипа: image
Разрядность: 64(2,8 MHz/1 Bit)
Формат: DST64
Количество каналов: 5.1 (4.0), 2.0

Лог проверки качества

foobar2000 1.4.8 / Замер динамического диапазона (DR) 1.1.1Дата отчёта:  2020-01-01 19:11:37
--------------------------------------------------------------------------------Анализ: Henry Mancini / Hangin Out & Theme from Z--------------------------------------------------------------------------------
DR Пики RMS Продолжительность трека--------------------------------------------------------------------------------DR7 -7.92 дБ -24.60 дБ 6:13 01-Loves Theme & TSOP The Sound of PhiladelphiaDR7 -10.81 дБ -27.16 дБ 1:59 02-Theme from The Girl from PetrovkaDR7 -10.75 дБ -27.95 дБ 3:20 03-Theme from The White DawnDR9 -9.40 дБ -28.70 дБ 3:18 04-The EntertainerDR7 -8.71 дБ -26.56 дБ 3:02 05-Song for AnnaDR7 -10.49 дБ -27.39 дБ 2:29 06-The Sex SymbolDR8 -10.15 дБ -27.03 дБ 2:22 07-Hangin OutDR7 -8.87 дБ -26.02 дБ 2:41 08-DolceDR7 -9.10 дБ -27.15 дБ 2:43 09-Theme from The Thief Who Came to DinnerDR8 -7.35 дБ -24.19 дБ 2:00 10-The StripperDR5 -13.00 дБ -24.53 дБ 2:03 11-Theme From ZDR6 -12.20 дБ -26.84 дБ 2:45 12-Theme From The Molly MaguiresDR7 -12.58 дБ -28.35 дБ 3:39 13-JeanDR5 -11.56 дБ -25.13 дБ 2:47 14-Airport Love ThemeDR6 -13.09 дБ -27.82 дБ 2:26 15-Raindrops Keep Fallin on My HeadDR7 -13.14 дБ -30.25 дБ 2:40 16-As Time Goes ByDR5 -12.33 дБ -27.96 дБ 2:43 17-The Hills Of YesterdayDR5 -11.25 дБ -26.10 дБ 3:07 18-A Man A Horse And A GunDR6 -14.08 дБ -30.19 дБ 2:56 19-Love Theme From The AdventuresDR7 -10.66 дБ -27.24 дБ 2:26 20-Patton--------------------------------------------------------------------------------
Количество треков: 20Реальные значения DR: DR7
Частота: 2822400 Гц / Частота PCM: 88200 ГцКаналов: 6Разрядность: 1Битрейт: 16934 кбит/сКодек: DST64================================================================================
--------------------------------------------------------------------------------Анализ: Henry Mancini / Hangin Out & Theme from Z--------------------------------------------------------------------------------
DR Пики RMS Продолжительность трека--------------------------------------------------------------------------------DR11 -6.27 дБ -19.95 дБ 6:13 01-Loves Theme & TSOP The Sound of PhiladelphiaDR9 -9.74 дБ -21.91 дБ 1:59 02-Theme from The Girl from PetrovkaDR10 -7.52 дБ -21.09 дБ 3:20 03-Theme from The White DawnDR11 -7.73 дБ -22.91 дБ 3:18 04-The EntertainerDR9 -8.40 дБ -21.45 дБ 3:02 05-Song for AnnaDR9 -9.14 дБ -21.75 дБ 2:28 06-The Sex SymbolDR10 -7.05 дБ -20.57 дБ 2:22 07-Hangin OutDR9 -6.91 дБ -21.14 дБ 2:41 08-DolceDR8 -8.19 дБ -20.38 дБ 2:41 09-Theme from The Thief Who Came to DinnerDR11 -6.29 дБ -19.52 дБ 2:00 10-The StripperDR12 -8.06 дБ -22.77 дБ 2:04 11-Theme From ZDR10 -8.50 дБ -23.48 дБ 2:49 12-Theme From The Molly MaguiresDR11 -8.68 дБ -24.07 дБ 3:39 13-JeanDR11 -8.67 дБ -22.59 дБ 2:47 14-Airport Love ThemeDR11 -9.77 дБ -23.39 дБ 2:26 15-Raindrops Keep Fallin on My HeadDR13 -9.22 дБ -26.39 дБ 2:40 16-As Time Goes ByDR9 -10.24 дБ -23.00 дБ 2:46 17-The Hills Of YesterdayDR11 -7.93 дБ -22.80 дБ 3:07 18-A Man A Horse And A GunDR11 -10.12 дБ -25.57 дБ 2:58 19-Love Theme From The AdventuresDR12 -6.63 дБ -22.90 дБ 2:27 20-Patton--------------------------------------------------------------------------------
Количество треков: 20Реальные значения DR: DR11
Частота: 2822400 Гц / Частота PCM: 88200 ГцКаналов: 2Разрядность: 1Битрейт: 5645 кбит/сКодек: DST64================================================================================

Скриншот спектра частот

5.1 (4.0)
-2.0
Источник (релизер): http://www.jpc.de/jpcng/poprock/detail/-/art/henry-mancini-hangin-out-with-sacd/hnum/8928202
[protorrent.xyz]_t-5828786
Torrent: Registered ·  [ 2020-03-16 20:35 ] ·  5f7cb3113ee12c3aaeea0d272e8e1b7f98a507e0

26 KB

Status: checked
Completed: 0 times
Size: 2.51 GB
Rating: 
(Votes: 0)
Say thanks: 0  Thanks
 
Похожие темы
[Profile] [PM]
Display posts from previous:    
Reply to topic

The time now is: Today 16:06

All times are GMT + 7 Hours



You cannot post new topics in this forum
You cannot reply to topics in this forum
You cannot edit your posts in this forum
You cannot delete your posts in this forum
You cannot vote in polls in this forum
You cannot attach files in this forum
You can download files in this forum