Register · 
Username: Password:
 ·  Forgot password?

Мазурка в постели / Mazurka på sengekanten / Bedroom Mazurka (Джон Хилбард / John Hilbard) [1970, Дания, Комедия, эротика, DVDRip-AVC] + Sub Rus + Sub Dan + Original Dan

Reply to topic
DL-List and Torrent activity [Update пиров]
Size:  1.23 GB   |    Registered:  7 months 21 day   |    Completed:  0 times

Seeder not seen: Never

 
   
 
 
 
Author Message

god56 ®

Gender:

Longevity: 6 years 11 months

Posts: 30040

Post 03-Feb-2020 23:31

[Quote]

Мазурка в постели / Mazurka på sengekanten / Bedroom Mazurka
Страна: Дания
Жанр: Комедия, эротика
Год выпуска: 1970
Продолжительность: 01:27:54
Перевод: Субтитры (Marshall)
Субтитры 1: русские
Субтитры 2: danish
Оригинальная аудиодорожка: датский
Режиссер: Джон Хилбард / John Hilbard
В ролях: Оле Сёлтофт, Анна Биргит Гарде, Бирте Тав, Anne Grete Nissen, Аксель Стрёбюе, Карл Стеггер, Поль Хаген, Гунилла, Susanne Jagd и др.
Жанетт Суэнссон
Описание: Ректор привилегированного закрытого лицея Отто Бостедт назначается министром культуры и должен в короткий срок предложить кандидатуру на замещение освобождаемой им должности. Лучшей заменой для себя он видит молодого учителя биологии Макса Миккельсена: тот любим учениками, уважаем их родителями и благосклонно встречаем попечительским советом. Но есть одно препятствие, которое необходимо устранить на пути к посту ректора. По уставу лицея кресло его руководителя может занимать только женатый человек, а Макс не просто холост — он панически боится женщин, считая их существами из другой Вселенной. Помочь симпатичному преподавателю преодолеть его робость берутся все: ученики, составляющие настоящий заговор в его пользу; дочери главного куратора учебного заведения, предлагающие Миккельсену руку и сердце; и даже чопорная с виду супруга ректора, готовая обучить лучшего сотрудника своего мужа всему, что мужчина должен уметь в постели…
Кинопоиск
Доп. информация: Забавная старая скандинавская картина с эротическим уклоном. Всё, как мы любим. Перевод и субтитры мои.
Фильм найден в сети.
Сэмпл
Качество видео: DVDRip-AVC
Формат видео: MKV
Видео: AVC, High@L3.1, 1800 Кбит/сек, 712x576 (16:9) @ 1012x576, 25,000 кадров/сек
Аудио: AC-3, 192 Кбит/сек, постоянный, 2 канала (L R), 48,0 КГц
Формат субтитров 1: softsub (SRT)
Формат субтитров 2: prerendered (IDX+SUB)
Доп. информация о субтитрах: (rus)

MediaInfo

ОбщееУникальный идентификатор : 8397258095087705537602663058962221455 (0x65140C9F4CC84C1A6DA0C127315898F)Полное имя : C:\Users\...\BEDROOM_MAZURKA.MKVФормат : MatroskaВерсия формата : Version 4Размер файла : 1,23 ГбайтПродолжительность : 1 ч. 27 м.Общий поток : 1996 Кбит/секДата кодирования : UTC 2020-02-02 00:46:56Программа кодирования : mkvmerge v42.0.0 ('Overtime') 64-bitБиблиотека кодирования : libebml v1.3.10 + libmatroska v1.5.2
ВидеоИдентификатор : 1Формат : AVCФормат/Информация : Advanced Video CodecПрофиль формата : High@L3.1Настройки формата : CABAC / 9 Ref FramesПараметр CABAC формата : ДаПараметр RefFrames формата : 9 кадровИдентификатор кодека : V_MPEG4/ISO/AVCПродолжительность : 1 ч. 27 м.Битрейт : 1800 Кбит/секШирина : 712 пикселейВысота : 576 пикселейСоотношение сторон : 16:9Соотношение сторон в оригинале : 16:9Режим частоты кадров : ПостоянныйЧастота кадров : 25,000 кадров/секЦветовое пространство : YUVСубдискретизация насыщенности : 4:2:0Битовая глубина : 8 битТип развёртки : ПрогрессивнаяБит/(Пиксели*Кадры) : 0.176Размер потока : 1,11 Гбайт (90%)Библиотека кодирования : x264 core 130 r2273 b3065e6Настройки программы : cabac=1 / ref=9 / deblock=1:-3:-3 / analyse=0x3:0x133 / me=umh / subme=10 / psy=1 / psy_rd=1.00:0.00 / mixed_ref=1 / me_range=24 / chroma_me=1 / trellis=2 / 8x8dct=1 / cqm=0 / deadzone=21,11 / fast_pskip=0 / chroma_qp_offset=-2 / threads=3 / lookahead_threads=1 / sliced_threads=0 / nr=0 / decimate=1 / interlaced=0 / bluray_compat=0 / constrained_intra=0 / bframes=16 / b_pyramid=2 / b_adapt=2 / b_bias=0 / direct=3 / weightb=1 / open_gop=0 / weightp=2 / keyint=250 / keyint_min=25 / scenecut=40 / intra_refresh=0 / rc_lookahead=60 / rc=2pass / mbtree=1 / bitrate=1800 / ratetol=1.0 / qcomp=0.60 / qpmin=0 / qpmax=69 / qpstep=4 / cplxblur=20.0 / qblur=0.5 / ip_ratio=1.40 / aq=2:1.00Язык : EnglishDefault : ДаForced : НетЦветовой диапазон : LimitedОсновные цвета : BT.601 NTSCХарактеристики трансфера : BT.709Коэффициенты матрицы : BT.601
АудиоИдентификатор : 2Формат : AC-3Формат/Информация : Audio Coding 3Коммерческое название : Dolby DigitalИдентификатор кодека : A_AC3Продолжительность : 1 ч. 27 м.Вид битрейта : ПостоянныйБитрейт : 192 Кбит/секКаналы : 2 каналаChannelLayout : L RЧастота : 48,0 КГцЧастота кадров : 31,250 кадров/сек (1536 SPF)Битовая глубина : 16 битМетод сжатия : С потерямиРазмер потока : 121 Мбайт (10%)Язык : DanishServiceKind/String : Complete MainDefault : НетForced : Нет
Текст #1Идентификатор : 3Формат : UTF-8Идентификатор кодека : S_TEXT/UTF8Идентификатор кодека/Информация : UTF-8 Plain TextПродолжительность : 1 ч. 25 м.Битрейт : 72 бит/секElementCount : 607Размер потока : 45,6 Кбайт (0%)Заголовок : Subtitles by MarshallЯзык : RussianDefault : ДаForced : Нет
Текст #2Идентификатор : 4Формат : VobSubРежим смешивания : zlibИдентификатор кодека : S_VOBSUBИдентификатор кодека/Информация : Picture based subtitle format used on DVDsПродолжительность : 1 ч. 25 м.Битрейт : 4323 бит/секElementCount : 736Размер потока : 2,65 Мбайт (0%)Язык : DanishDefault : НетForced : Нет
Меню00:00:00.000 : Chapter 100:06:06.160 : Chapter 200:11:20.280 : Chapter 300:15:10.920 : Chapter 400:18:12.280 : Chapter 500:21:52.760 : Chapter 600:24:08.320 : Chapter 700:27:18.080 : Chapter 800:30:00.000 : Chapter 900:34:29.960 : Chapter 1000:38:25.760 : Chapter 1100:41:14.040 : Chapter 1200:44:17.800 : Chapter 1300:49:15.400 : Chapter 1400:52:13.560 : Chapter 1500:57:41.840 : Chapter 1601:01:11.360 : Chapter 1701:05:26.520 : Chapter 1801:08:31.920 : Chapter 1901:11:03.400 : Chapter 2001:15:18.840 : Chapter 2101:17:48.240 : Chapter 2201:21:19.320 : Chapter 2301:23:52.800 : Chapter 24

Скриншот c названием фильма

Скриншоты

Субтитры

1
00:00:07,695 --> 00:00:15,903
МАЗУРКА В ПОСТЕЛИ
2
00:00:23,517 --> 00:00:24,781
Ты заходишь слишком далеко!
3
00:00:27,647 --> 00:00:32,709
Не рви мои трусики, они были
самыми дорогими у Бругсена.
4
00:00:36,453 --> 00:00:40,893
- Что, испугалась?
- Я вся в муравьях. Как романтично!
5
00:02:40,034 --> 00:02:42,828
Нет, нет! С начала.
6
00:03:11,458 --> 00:03:19,571
Нет, нет, это очень важно.
Это должно звучать возвышенно.
7
00:03:19,872 --> 00:03:22,772
Давайте отсюда, -
Сердце может стать моложе.
8
00:03:46,833 --> 00:03:50,387
- Так, Питер...
- Кто здесь курит?
9
00:03:53,986 --> 00:03:57,623
- Кто курит?
- Добрый день, мадам Бостед,
10
00:04:00,093 --> 00:04:03,794
- это я!
- Я не знала,
11
00:04:03,978 --> 00:04:07,163
- что профессор Миккельсен курит.
- Нет!
12
00:04:07,263 --> 00:04:13,275
- У нас просто небольшой перерыв.
- Мой муж хочет вас видеть.
13
00:04:13,375 --> 00:04:16,311
Да, я зайду к директору
как только мы здесь закончим.
14
00:04:16,311 --> 00:04:19,584
Он хочет поговорить с вами прямо сейчас.
15
00:04:19,605 --> 00:04:22,436
Как только закончу урок.
16
00:04:23,082 --> 00:04:24,691
Что от него нужно директору?
17
00:04:24,691 --> 00:04:29,487
- Обычно объявления делают по вторникам.
- Может, что-то случилось.
18
00:04:29,887 --> 00:04:34,823
Разве не это кощунство, курить в церкви?
19
00:04:40,062 --> 00:04:43,462
- Ты не должен курить в церкви.
- Спасибо вам за помощь.
20
00:04:43,632 --> 00:04:45,894
Пахнет как "Принц".
21
00:04:47,276 --> 00:04:49,471
- Кто выиграл?
- Что?
22
00:04:50,570 --> 00:04:54,260
- Оле и Михаэль, кто выиграл?
- Он.
23
00:04:55,121 --> 00:05:00,695
Выигрыши идут в копилку.
Отнеси в коробку.
24
00:05:01,035 --> 00:05:04,195
Вы не должны пользоваться моим
либеральным отношением к вам.
25
00:05:04,295 --> 00:05:06,634
Если вы станете директором, вы
разрешите принимать в школу девушек?
[protorrent.xyz]_t_5845047
Torrent: Registered ·  [ 2020-02-03 23:31 ] ·  2e9eae41f7981206d703dadfe90ecd564c6d06da

13 KB

Status: checked
Completed: 0 times
Size: 1.23 GB
Rating: 
(Votes: 0)
Say thanks: 0  Thanks
 
Похожие темы
[Profile] [PM]
Display posts from previous:    
Reply to topic

The time now is: Today 14:18

All times are GMT + 7 Hours



You cannot post new topics in this forum
You cannot reply to topics in this forum
You cannot edit your posts in this forum
You cannot delete your posts in this forum
You cannot vote in polls in this forum
You cannot attach files in this forum
You can download files in this forum