Register · 
Username: Password:
 ·  Forgot password?

Слёзы под дождём / Tears in the Rain (Дон Шарп / Don Sharp) [1988, Великобритания, драма, мелодрама, военный, DVDRip] DVO (ТВ-6)

Reply to topic
DL-List and Torrent activity [Update пиров]
Size:  1.46 GB   |    Registered:  7 months 18 days   |    Completed:  0 times

Seeder not seen: Never

 
   
 
 
 
Author Message

god56 ®

Gender:

Longevity: 6 years 11 months

Posts: 30017

Post 03-Feb-2020 22:29

[Quote]

Слёзы под дождём / Tears in the Rain
Год выпуска: 1988
Страна: Великобритания
Жанр: драма, мелодрама, военный
Продолжительность: 01:37:10
Перевод: Профессиональный (двухголосый закадровый) - ТВ-6
Субтитры: нет
Режиссер: Дон Шарп / Don Sharp
В ролях: Шэрон Стоун / Casey Cantrell, Кристофер Кейзнов / Michael Bredon, Ли Лосон / Hamdan al Dubai, Пол Данман / Lord Richard Bredon, Морис Денэм / Fordingbridge, Анна Мэсси / Lady Emily-Мировая премьера: 9 сентября 1988-Описание: Кэсси Кэнтрэл приезжает в Лондон, чтобы выполнить последнюю просьбу недавно умершей матери и передать ее письмо лорду Ричарду Брэдону. Во время Второй мировой войны у английского лорда и ее матери, американской певицы, был серьезный роман. Однако при встрече с Кэсси лорд категорически отрицает факт знакомства. Покидая его дом, девушка сталкивается с сыном лорда Майклом. Молодые люди влюбляются друг в друга. Узнав об этих отношениях, лорд Брэдон приходит в ярость, решив, что Кэсси намерена шантажировать его семью. Но есть и другое объяснение раздражению: он не забыл о своей любви к матери Кэсси, и тогда вполне возможно, что она - сводная сестра Майкла...-Огромная благодарность:
[url=profile.php?mode=viewprofile&u=779481]edich2[/url] - видеоряд.
[url=profile.php?mode=viewprofile&u=26107013]-AME-[/url] - собственная запись перевода с телеканала ТВ-6 через видеомагнитофон, оцифровка звука с видеокассеты и синхронизация.
[url=profile.php?mode=viewprofile&u=3190918]JUSTKANT[/url] - оформление релиза.-Данный перевод на трекере появляются впервые!
На русский язык фильм озвучен фирмой "СВ-Дубль" на тон-студии "Мосфильм" по заказу "М.Н.В.К." в 1997 году.
Текст читают Владимир Вихров и Людмила Ильина.-Рейтинг

MPAA: R - Лицам до 17 лет обязательно присутствие взрослого.-Качество видео: DVDRip
Формат видео: AVI -> //Сэмпл//
Видео: XviD, 704x544 (1.294), 25.000 fps, 1953 kbps
Аудио:
1 - 48 khz, AC3 Dolby Digital, 2/0 (L,R) ch, ~192 kbps [ТВ-6] VHS-TVRip

MediaInfo

GeneralComplete name : D:\Слёзы под дождём (ТВ-6).aviFormat : AVIFormat/Info : Audio Video InterleaveFile size : 1.46 GiBDuration : 1 h 37 minOverall bit rate : 2 155 kb/sMovie name : Слезы под дождем / Tears in the Rain (ТВ-6)Director : JUSTKANTWriting application : VirtualDubMod 1.5.10.3 | www.virtualdub-fr.org || (build 2550/release)Writing library : VirtualDubMod build 2550/releaseCopyright : Качество звука: VHS-TVRip (-AME-)
VideoID : 0Format : MPEG-4 VisualFormat profile : Advanced Simple@L5Format settings : BVOP1Format settings, BVOP : 1Format settings, QPel : NoFormat settings, GMC : No warppointsFormat settings, Matrix : Default (MPEG)Codec ID : XVIDCodec ID/Hint : XviDDuration : 1 h 37 minBit rate : 1 953 kb/sWidth : 704 pixelsHeight : 544 pixelsDisplay aspect ratio : 1.294Frame rate : 25.000 FPSColor space : YUVChroma subsampling : 4:2:0Bit depth : 8 bitsScan type : ProgressiveCompression mode : LossyBits/(Pixel*Frame) : 0.204Stream size : 1.33 GiB (91%)Writing library : XviD 73
AudioID : 1Format : AC-3Format/Info : Audio Coding 3Commercial name : Dolby DigitalCodec ID : 2000Duration : 1 h 37 minBit rate mode : ConstantBit rate : 192 kb/sChannel(s) : 2 channelsChannel layout : L RSampling rate : 48.0 kHzFrame rate : 31.250 FPS (1536 SPF)Compression mode : LossyStream size : 133 MiB (9%)Alignment : Split across interleavesInterleave, duration : 40 ms (1.00 video frame)Interleave, preload duratio : 500 msTitle : ТВ-6: Владимир Вихров и Людмила ИльинаService kind : Complete Main

Скриншоты

[protorrent.xyz]_t_5845187
Torrent: Registered ·  [ 2020-02-03 22:29 ] ·  9eac6e7576bd5c9a6a5a6e54710b515c813f321b

15 KB

Status: checked
Completed: 0 times
Size: 1.46 GB
Rating: 
(Votes: 0)
Say thanks: 0  Thanks
 
Похожие темы
[Profile] [PM]
Display posts from previous:    
Reply to topic

The time now is: Today 07:26

All times are GMT + 7 Hours



You cannot post new topics in this forum
You cannot reply to topics in this forum
You cannot edit your posts in this forum
You cannot delete your posts in this forum
You cannot vote in polls in this forum
You cannot attach files in this forum
You can download files in this forum