Register · 
Username: Password:
 ·  Forgot password?

Парк Горького / Gorky Park (Майкл Эптид / Michael Apted) [1983, США, триллер, детектив, HDTVRip] AVO (Александр Марченко) + AVO (Григорий Либергал) + DVO

Reply to topic
DL-List and Torrent activity [Update пиров]
Size:  2.18 GB   |    Registered:  7 months 21 day   |    Completed:  0 times

Seeder not seen: Never

 
   
 
 
 
Author Message

god56 ®

Gender:

Longevity: 6 years 11 months

Posts: 30040

Post 03-Feb-2020 22:29

[Quote]

Парк Горького / Gorky Park
Страна: США
Жанр: триллер, детектив
Год выпуска: 1983
Продолжительность: 02:08:37
Перевод: Авторский (одноголосый закадровый) Александр Марченко
Перевод 2: Авторский (одноголосый закадровый) Григорий Либергал
Перевод 3: Профессиональный (двухголосый закадровый)
Субтитры: нет
Режиссер: Майкл Эптид / Michael Apted
В ролях: Уильям Хёрт, Ли Марвин, Джоанна Пакула, Иэн Бэннен, Майкл Элфик, Брайан Деннехи, Ричард Гриффитс, Александр Нокс, Рикки Фултон
Описание: В Москве, в парке имени Горького обнаружены тела трех жестоко убитых мужчин. Расследованием этого преступления занимается следователь Аркадий Ренко, который пытается установить личность убитых. Вскоре улики приводят его к неутешительным выводам — в этом деле явно присутствует след КГБ. Ренко хочет закрыть дело, однако, когда узнает, что в преступление втянута его любимая женщина Ирина, решает идти до конца....

Сэмпл: http://multi-up.com/1253667
Качество видео: HDTVRip ( HDTVRip 720p)
Формат видео: AVI
Видео: XviD 73, 720x384, (1,85:1), 23,976 fps, 1826 Кбит/с, 8 бит, 0.28 bit/pixel
Аудио: Русский (АС3, 2 ch (Front: L R), 48,0 KHz, 192 Kbps) Александр Марченко
Аудио 2: Русский (АС3, 2 ch (Front: L R), 48,0 KHz, 192 Kbps) Григорий Либергал
Аудио 3: Русский (АС3, 2 ch (Front: L R), 48,0 KHz, 192 Kbps) DVO

MediaInfo

ОбщееПолное имя : D:\Фильмы на трекер\Парк Горького (триллер, детектив 1983 год).aviФормат : AVIФормат/Информация : Audio Video InterleaveПрофиль формата : OpenDMLРазмер файла : 2,18 ГбайтПродолжительность : 2 ч. 8 м.Общий поток : 2426 Кбит/секПрограмма кодирования : VirtualDubMod 1.5.10.2 (build 2540/release)Библиотека кодирования : VirtualDubMod build 2540/release
ВидеоИдентификатор : 0Формат : MPEG-4 VisualПрофиль формата : Advanced Simple@L5Параметр BVOP формата : 2Параметр QPel формата : НетПараметр GMC формата : Без точки переходаПараметр матрицы формата : ВыборочнаяИдентификатор кодека : XVIDИдентификатор кодека/Подсказка : XviDПродолжительность : 2 ч. 8 м.Битрейт : 1826 Кбит/секШирина : 720 пикселейВысота : 384 пикселяСоотношение сторон : 1,85:1Частота кадров : 23,976 (23976/1000) кадра/секЦветовое пространство : YUVСубдискретизация насыщенности : 4:2:0Битовая глубина : 8 битТип развёртки : ПрогрессивнаяМетод сжатия : С потерямиБит/(Пиксели*Кадры) : 0.275Размер потока : 1,64 Гбайт (75%)Библиотека кодирования : XviD 73
Аудио #1Идентификатор : 1Формат : AC-3Формат/Информация : Audio Coding 3Расширение режима : CM (complete main)Параметр Endianness формата : BigИдентификатор кодека : 2000Продолжительность : 2 ч. 8 м.Вид битрейта : ПостоянныйБитрейт : 192 Кбит/секКаналы : 2 каналаРасположение каналов : Front: L RЧастота : 48,0 КГцЧастота кадров : 31,250 кадров/сек (1536 spf)Метод сжатия : С потерямиРазмер потока : 177 Мбайт (8%)Выравнивание : Разделение по промежуткамПродолжительность промежутка : 42 мс. (1,00 видеокадр)Время предзагрузки промежутка : 500 мс.
Аудио #2Идентификатор : 2Формат : AC-3Формат/Информация : Audio Coding 3Расширение режима : CM (complete main)Параметр Endianness формата : BigИдентификатор кодека : 2000Продолжительность : 2 ч. 8 м.Вид битрейта : ПостоянныйБитрейт : 192 Кбит/секКаналы : 2 каналаРасположение каналов : Front: L RЧастота : 48,0 КГцЧастота кадров : 31,250 кадров/сек (1536 spf)Метод сжатия : С потерямиРазмер потока : 177 Мбайт (8%)Выравнивание : Разделение по промежуткамПродолжительность промежутка : 42 мс. (1,00 видеокадр)Время предзагрузки промежутка : 500 мс.
Аудио #3Идентификатор : 3Формат : AC-3Формат/Информация : Audio Coding 3Расширение режима : CM (complete main)Параметр Endianness формата : BigИдентификатор кодека : 2000Продолжительность : 2 ч. 8 м.Вид битрейта : ПостоянныйБитрейт : 192 Кбит/секКаналы : 2 каналаРасположение каналов : Front: L RЧастота : 48,0 КГцЧастота кадров : 31,250 кадров/сек (1536 spf)Метод сжатия : С потерямиРазмер потока : 177 Мбайт (8%)Выравнивание : Разделение по промежуткамПродолжительность промежутка : 42 мс. (1,00 видеокадр)Время предзагрузки промежутка : 500 мс.

Скриншот c названием фильма

Скриншоты

[protorrent.xyz]_t_5845283
Torrent: Registered ·  [ 2020-02-03 22:29 ] ·  af640e9bbe1e409242367a937de34a2bc22b75b9

11 KB

Status: checked
Completed: 0 times
Size: 2.18 GB
Rating: 
(Votes: 0)
Say thanks: 0  Thanks
 
Похожие темы
[Profile] [PM]
Display posts from previous:    
Reply to topic

The time now is: Today 13:27

All times are GMT + 7 Hours



You cannot post new topics in this forum
You cannot reply to topics in this forum
You cannot edit your posts in this forum
You cannot delete your posts in this forum
You cannot vote in polls in this forum
You cannot attach files in this forum
You can download files in this forum