Register · 
Username: Password:
 ·  Forgot password?

RPWL - Live From Outer Space [2019, Art-Rock, Blu-ray, 1080p]

Reply to topic
DL-List and Torrent activity [Update пиров]
Size:  23.16 GB   |    Registered:  4 months 15 days   |    Completed:  3 times

Seeder not seen: 1 month 11 days

 
   
 
 
 
Author Message

Nestor_13 ®

Gender:

Longevity: 6 years 8 months

Posts: 23904

Post 23-Jan-2020 04:24

[Quote]

RPWL - Live From Outer Space
Жанр: Art-Rock
Продолжительность: 01:53:09
Год выпуска: 2019
Tracklist:
  • News From Outer Space
  • A New World
  • Welcome To The Freak Show
  • Light Of The World
  • Not Our Place To Be
  • What I Really Need
  • Give Birth To The Sun
  • Far Away From Home
  • Hole In The Sky
  • Sleep
  • Masters Of War
  • Trying To Kiss The Sun
  • RosesBonus Material
    • A New Word
      Official Video Clip Incl. Surround Sound
    • What I Really Need
      Official Video Clip Incl. Surround Sound
    • Exclusive Live Pictures
    Line-up:
    Yogi Lang - Vocals + Keyboards
    Kalle Wallner - Guitars + Backing Vocals
    Markus Jehle - Keyboards
    Marc Turiaux - Drums
    Sebastian Harnack - Bass + Bass Pedals
    Rob Quirk - Presentor
    Доп. информация: альбом из шкафчика tatuk'a...
    Отличный альбом, добряки. Очень спокойный и красивый. Прекрасно снят, безо всяких супер-пупер космических костюмов. Наличествует только резиновая голова "чужого", приколоченная к стойке клавишных. Парни играли альбом "Tales From Outer Space" в голландском городке Zoetermeer в апреле прошлого года. В отличие от предыдущего блюра, это чисто англоязычный концерт. Йоги Ланг достаточно понятен. Много клавиш, и хотя в группе есть выделенный клавишник - Маркус Ель, периодически за синтезатор становился и сам Йоги, и иногда даже басист что-то там наигрывал одной рукой... На одном из треков на экране позади музыкантов проскакивают исторические кадры плюс современные политики, - и Ангела Меркель, и Путин (зырьте последний скриншот), и серп и молот, и свастика... То есть, Роскомнадзор их с этим концертом в Россию не пустит . И, кстати, добавлю для особо умных добряков: седьмой трек к одноимнной песне группы Black Sabbath 1975 года никакого отношения не имеет.
    В бонусах есть пара новых клипов.
    Ну и обложки - где обычно.
    Внимание! Обещанной на заднике и в экранном меню блюрика дорожки PCM на самом деле нету! Вместо этого присутствуют две одинаковых дороги Dolby AC3. Куда пропала дорога PCM - понятия не имею (я не брал!), но сие явно случилось на этапе создания диска, - до того, как его разослали по всяким амазонам...
    Всех добряков - с Рождеством!
    Качество: Blu-ray
    Разрешение видео/развертка: 1080p
    Контейнер: BDMV
    Видео кодек: H.264
    Аудио кодек: DTS
    Видео: MPEG-4 AVC Video / 24960 kbps / 1080p / 24 fps / 16:9 / High Profile 4.1
    Аудио: Dolby Digital Audio / 2.0 / 48 kHz / 192 kbps
    Аудио 2: Dolby Digital Audio / 5.1 / 48 kHz / 384 kbps
    Аудио 3: DTS Audio / 5.1 / 48 kHz / 1509 kbps / 24-bit

    Отчёт MediaInfo / BDInfo

    Disc Title: RPWL LIVE FROM OUTER SPACEDisc Size: 24,865,958,837 bytesProtection: AACSExtras: 50Hz ContentBDInfo: 0.7.4.0
    Notes:
    BDINFO HOME: Cinema Squid (old) http://www.cinemasquid.com/blu-ray/tools/bdinfo UniqProject GitHub (new) http://github.com/UniqProject/BDInfo
    INCLUDES FORUMS REPORT FOR: AVS Forum Blu-ray Audio and Video Specifications Thread http://www.avsforum.com/avs-vb/showthread.php?t=1155731
    ********************PLAYLIST: 00028.MPLS********************
    Total   Video
    Title                                                           Codec   Length  Movie Size      Disc Size       Bitrate Bitrate Main Audio Track                          Secondary Audio Track
    -----                                                           ------  ------- --------------  --------------  ------- ------- ------------------                        ---------------------
    00028.MPLS                                                      AVC     1:38:18 21,201,223,680  24,865,958,837  28.75   24.96   DD AC3 2.0 192Kbps                        DD AC3 5.1 384Kbps
    DISC INFO:
    Disc Title:     RPWL LIVE FROM OUTER SPACE
    Disc Size:      24,865,958,837 bytes
    Protection:     AACS
    Extras:         50Hz Content
    BDInfo:         0.7.4.0
    PLAYLIST REPORT:
    Name:                   00028.MPLS
    Length:                 1:38:18.583 (h:m:s.ms)
    Size:                   21,201,223,680 bytes
    Total Bitrate:          28.75 Mbps
    VIDEO:
    Codec                   Bitrate             Description
    -----                   -------             -----------
    MPEG-4 AVC Video        24960 kbps          1080p / 24 fps / 16:9 / High Profile 4.1
    AUDIO:
    Codec                           Language        Bitrate         Description
    -----                           --------        -------         -----------
    Dolby Digital Audio             English         192 kbps        2.0 / 48 kHz /   192 kbps
    Dolby Digital Audio             English         192 kbps        2.0 / 48 kHz /   192 kbps
    Dolby Digital Audio             English         384 kbps        5.1 / 48 kHz /   384 kbps
    DTS Audio                       English         1509 kbps       5.1 / 48 kHz /  1509 kbps / 24-bit
    FILES:
    Name            Time In         Length          Size            Total Bitrate
    ----            -------         ------          ----            -------------
    00028.M2TS      0:00:00.000     1:38:18.583     21,201,223,680  28,754
    CHAPTERS:
    Number          Time In         Length          Avg Video Rate  Max 1-Sec Rate  Max 1-Sec Time  Max 5-Sec Rate  Max 5-Sec Time  Max 10Sec Rate  Max 10Sec Time  Avg Frame Size  Max Frame Size  Max Frame Time
    ------          -------         ------          --------------  --------------  --------------  --------------  --------------  --------------  --------------  --------------  --------------  --------------
    1               0:00:00.000     0:03:07.916     25,467 kbps     51,190 kbps     00:01:10.333    34,548 kbps     00:01:13.500    31,885 kbps     00:01:10.333    132,610 bytes   676,929 bytes   00:01:10.375
    2               0:03:07.916     0:10:25.416     24,882 kbps     45,633 kbps     00:05:51.166    31,616 kbps     00:04:11.208    28,596 kbps     00:13:15.458    129,591 bytes   734,862 bytes   00:05:51.416
    3               0:13:33.333     0:07:52.375     24,878 kbps     48,823 kbps     00:21:20.833    33,348 kbps     00:21:20.708    30,845 kbps     00:13:39.666    129,573 bytes   679,953 bytes   00:17:37.416
    4               0:21:25.708     0:12:41.416     25,080 kbps     46,514 kbps     00:29:08.958    32,634 kbps     00:23:04.916    30,005 kbps     00:21:25.833    130,623 bytes   688,671 bytes   00:32:31.208
    5               0:34:07.125     0:07:53.333     25,017 kbps     46,789 kbps     00:39:16.916    32,193 kbps     00:36:02.541    30,977 kbps     00:41:16.083    130,298 bytes   628,290 bytes   00:35:10.375
    6               0:42:00.458     0:05:26.125     24,884 kbps     42,407 kbps     00:44:37.458    33,157 kbps     00:46:14.416    29,019 kbps     00:46:11.416    129,604 bytes   691,785 bytes   00:46:35.000
    7               0:47:26.583     0:10:11.333     25,073 kbps     57,170 kbps     00:47:34.875    34,361 kbps     00:47:34.875    32,643 kbps     00:47:34.750    130,588 bytes   851,412 bytes   00:47:35.375
    8               0:57:37.916     0:04:30.125     24,987 kbps     40,184 kbps     01:01:52.750    30,743 kbps     01:01:22.000    28,819 kbps     00:57:51.958    130,138 bytes   590,921 bytes   00:59:41.250
    9               1:02:08.041     0:07:11.458     24,961 kbps     41,152 kbps     01:02:47.166    31,659 kbps     01:02:46.333    31,171 kbps     01:03:23.750    130,008 bytes   616,597 bytes   01:08:04.250
    10              1:09:19.500     0:09:12.541     24,693 kbps     45,160 kbps     01:09:39.750    32,930 kbps     01:12:54.666    31,025 kbps     01:11:20.833    128,609 bytes   666,387 bytes   01:09:39.791
    11              1:18:32.041     0:06:00.541     25,465 kbps     56,907 kbps     01:18:33.500    35,162 kbps     01:18:33.375    31,796 kbps     01:18:33.625    132,628 bytes   699,392 bytes   01:18:34.125
    12              1:24:32.583     0:05:03.583     25,004 kbps     41,202 kbps     01:25:18.541    31,424 kbps     01:28:27.708    28,896 kbps     01:25:58.958    130,227 bytes   573,098 bytes   01:24:59.791
    13              1:29:36.166     0:08:42.416     24,527 kbps     45,745 kbps     01:36:57.208    30,293 kbps     01:31:17.916    27,473 kbps     01:31:13.000    127,763 bytes   659,342 bytes   01:34:57.416
    STREAM DIAGNOSTICS:
    File            PID             Type            Codec           Language                Seconds                 Bitrate                 Bytes           Packets
    ----            ---             ----            -----           --------                --------------          --------------          -------------   -----
    00028.M2TS      4113 (0x1011)   0x1B            AVC                                     5898.458                24,960                  18,403,431,806  100,101,632
    00028.M2TS      4352 (0x1100)   0x81            AC3             eng (English)           5898.458                192                     141,355,008     920,280
    00028.M2TS      4353 (0x1101)   0x81            AC3             eng (English)           5898.458                192                     141,354,240     920,275
    00028.M2TS      4354 (0x1102)   0x81            AC3             eng (English)           5898.458                383                     282,708,480     1,656,495
    00028.M2TS      4355 (0x1103)   0x82            DTS             eng (English)           5898.458                1,508                   1,111,514,184   6,626,016
    QUICK SUMMARY:
    Disc Title: RPWL LIVE FROM OUTER SPACEDisc Size: 24,865,958,837 bytesProtection: AACSPlaylist: 00028.MPLSSize: 21,201,223,680 bytesLength: 1:38:18.583Total Bitrate: 28.75 MbpsVideo: MPEG-4 AVC Video / 24960 kbps / 1080p / 24 fps / 16:9 / High Profile 4.1Audio: English / Dolby Digital Audio / 2.0 / 48 kHz / 192 kbpsAudio: English / Dolby Digital Audio / 2.0 / 48 kHz / 192 kbpsAudio: English / Dolby Digital Audio / 5.1 / 48 kHz / 384 kbpsAudio: English / DTS Audio / 5.1 / 48 kHz / 1509 kbps / 24-bit
    ********************PLAYLIST: 00036.MPLS********************
    Total   Video
    Title                                                           Codec   Length  Movie Size      Disc Size       Bitrate Bitrate Main Audio Track                          Secondary Audio Track
    -----                                                           ------  ------- --------------  --------------  ------- ------- ------------------                        ---------------------
    00036.MPLS                                                      AVC     0:08:13 1,371,930,624   24,865,958,837  22.26   19.58   DD AC3 2.0 192Kbps                        DD AC3 5.1 384Kbps
    DISC INFO:
    Disc Title:     RPWL LIVE FROM OUTER SPACE
    Disc Size:      24,865,958,837 bytes
    Protection:     AACS
    Extras:         50Hz Content
    BDInfo:         0.7.4.0
    PLAYLIST REPORT:
    Name:                   00036.MPLS
    Length:                 0:08:13.000 (h:m:s.ms)
    Size:                   1,371,930,624 bytes
    Total Bitrate:          22.26 Mbps
    VIDEO:
    Codec                   Bitrate             Description
    -----                   -------             -----------
    MPEG-4 AVC Video        19576 kbps          1080p / 24 fps / 16:9 / High Profile 4.1
    AUDIO:
    Codec                           Language        Bitrate         Description
    -----                           --------        -------         -----------
    Dolby Digital Audio             English         192 kbps        2.0 / 48 kHz /   192 kbps
    Dolby Digital Audio             English         192 kbps        2.0 / 48 kHz /   192 kbps
    Dolby Digital Audio             English         384 kbps        5.1 / 48 kHz /   384 kbps
    DTS Audio                       English         768 kbps        5.1 / 48 kHz /   768 kbps / 24-bit
    FILES:
    Name            Time In         Length          Size            Total Bitrate
    ----            -------         ------          ----            -------------
    00036.M2TS      0:00:00.000     0:08:13.000     1,371,930,624   22,263
    CHAPTERS:
    Number          Time In         Length          Avg Video Rate  Max 1-Sec Rate  Max 1-Sec Time  Max 5-Sec Rate  Max 5-Sec Time  Max 10Sec Rate  Max 10Sec Time  Avg Frame Size  Max Frame Size  Max Frame Time
    ------          -------         ------          --------------  --------------  --------------  --------------  --------------  --------------  --------------  --------------  --------------  --------------
    1               0:00:00.000     0:08:13.000     19,576 kbps     47,659 kbps     00:00:00.999    28,719 kbps     00:01:23.833    26,190 kbps     00:01:35.791    101,968 bytes   663,776 bytes   00:00:47.916
    STREAM DIAGNOSTICS:
    File            PID             Type            Codec           Language                Seconds                 Bitrate                 Bytes           Packets
    ----            ---             ----            -----           --------                --------------          --------------          -------------   -----
    00036.M2TS      4113 (0x1011)   0x1B            AVC                                     492.917                 19,580                  1,206,385,493   6,563,320
    00036.M2TS      4352 (0x1100)   0x81            AC3             eng (English)           492.917                 190                     11,734,272      76,395
    00036.M2TS      4353 (0x1101)   0x81            AC3             eng (English)           492.917                 190                     11,732,736      76,385
    00036.M2TS      4354 (0x1102)   0x81            AC3             eng (English)           492.917                 381                     23,465,472      137,493
    00036.M2TS      4355 (0x1103)   0x82            DTS             eng (English)           492.917                 748                     46,111,016      275,016
    QUICK SUMMARY:
    Disc Title: RPWL LIVE FROM OUTER SPACEDisc Size: 24,865,958,837 bytesProtection: AACSPlaylist: 00036.MPLSSize: 1,371,930,624 bytesLength: 0:08:13.000Total Bitrate: 22.26 MbpsVideo: MPEG-4 AVC Video / 19576 kbps / 1080p / 24 fps / 16:9 / High Profile 4.1Audio: English / Dolby Digital Audio / 2.0 / 48 kHz / 192 kbpsAudio: English / Dolby Digital Audio / 2.0 / 48 kHz / 192 kbpsAudio: English / Dolby Digital Audio / 5.1 / 48 kHz / 384 kbpsAudio: English / DTS Audio / 5.1 / 48 kHz / 768 kbps / 24-bit
    ********************PLAYLIST: 00037.MPLS********************
    Total   Video
    Title                                                           Codec   Length  Movie Size      Disc Size       Bitrate Bitrate Main Audio Track                          Secondary Audio Track
    -----                                                           ------  ------- --------------  --------------  ------- ------- ------------------                        ---------------------
    00037.MPLS                                                      AVC     0:06:38 1,107,886,080   24,865,958,837  22.26   19.56   DD AC3 2.0 192Kbps                        DD AC3 5.1 384Kbps
    DISC INFO:
    Disc Title:     RPWL LIVE FROM OUTER SPACE
    Disc Size:      24,865,958,837 bytes
    Protection:     AACS
    Extras:         50Hz Content
    BDInfo:         0.7.4.0
    PLAYLIST REPORT:
    Name:                   00037.MPLS
    Length:                 0:06:38.083 (h:m:s.ms)
    Size:                   1,107,886,080 bytes
    Total Bitrate:          22.26 Mbps
    VIDEO:
    Codec                   Bitrate             Description
    -----                   -------             -----------
    MPEG-4 AVC Video        19562 kbps          1080p / 24 fps / 16:9 / High Profile 4.1
    AUDIO:
    Codec                           Language        Bitrate         Description
    -----                           --------        -------         -----------
    Dolby Digital Audio             English         192 kbps        2.0 / 48 kHz /   192 kbps
    Dolby Digital Audio             English         192 kbps        2.0 / 48 kHz /   192 kbps
    Dolby Digital Audio             English         384 kbps        5.1 / 48 kHz /   384 kbps
    DTS Audio                       English         768 kbps        5.1 / 48 kHz /   768 kbps / 24-bit
    FILES:
    Name            Time In         Length          Size            Total Bitrate
    ----            -------         ------          ----            -------------
    00037.M2TS      0:00:00.000     0:06:38.083     1,107,886,080   22,264
    CHAPTERS:
    Number          Time In         Length          Avg Video Rate  Max 1-Sec Rate  Max 1-Sec Time  Max 5-Sec Rate  Max 5-Sec Time  Max 10Sec Rate  Max 10Sec Time  Avg Frame Size  Max Frame Size  Max Frame Time
    ------          -------         ------          --------------  --------------  --------------  --------------  --------------  --------------  --------------  --------------  --------------  --------------
    1               0:00:00.000     0:06:38.083     19,562 kbps     39,165 kbps     00:01:00.291    27,249 kbps     00:00:44.583    25,754 kbps     00:00:41.958    101,894 bytes   791,597 bytes   00:04:54.416
    STREAM DIAGNOSTICS:
    File            PID             Type            Codec           Language                Seconds                 Bitrate                 Bytes           Packets
    ----            ---             ----            -----           --------                --------------          --------------          -------------   -----
    00037.M2TS      4113 (0x1011)   0x1B            AVC                                     398.000                 19,566                  973,397,100     5,295,742
    00037.M2TS      4352 (0x1100)   0x81            AC3             eng (English)           398.000                 192                     9,551,616       62,185
    00037.M2TS      4353 (0x1101)   0x81            AC3             eng (English)           398.000                 192                     9,550,080       62,175
    00037.M2TS      4354 (0x1102)   0x81            AC3             eng (English)           398.000                 384                     19,100,160      111,915
    00037.M2TS      4355 (0x1103)   0x82            DTS             eng (English)           398.000                 754                     37,532,854      223,854
    QUICK SUMMARY:
    Disc Title: RPWL LIVE FROM OUTER SPACEDisc Size: 24,865,958,837 bytesProtection: AACSPlaylist: 00037.MPLSSize: 1,107,886,080 bytesLength: 0:06:38.083Total Bitrate: 22.26 MbpsVideo: MPEG-4 AVC Video / 19562 kbps / 1080p / 24 fps / 16:9 / High Profile 4.1Audio: English / Dolby Digital Audio / 2.0 / 48 kHz / 192 kbpsAudio: English / Dolby Digital Audio / 2.0 / 48 kHz / 192 kbpsAudio: English / Dolby Digital Audio / 5.1 / 48 kHz / 384 kbpsAudio: English / DTS Audio / 5.1 / 48 kHz / 768 kbps / 24-bit

    Скриншоты

    [protorrent.xyz]_t_5831274
    Torrent: Registered ·  [ 2020-01-23 04:24 ] ·  51095f8c00ad66a602b0fb782f94307374a72a99

    42 KB

    Status: checked
    Completed: 3 times
    Size: 23.16 GB
    Rating: 
    (Votes: 0)
    Say thanks: 0  Thanks
     
    Похожие темы
  • [Profile] [PM]

    Guest

    Longevity: 50 years

    Post 14-Apr-2020 19:55 (after 2 months 23 days)

    [Quote]

    grazie
    [Profile] [PM]
    Display posts from previous:    
    Reply to topic

    The time now is: Today 17:34

    All times are GMT + 7 Hours



    You cannot post new topics in this forum
    You cannot reply to topics in this forum
    You cannot edit your posts in this forum
    You cannot delete your posts in this forum
    You cannot vote in polls in this forum
    You cannot attach files in this forum
    You can download files in this forum