Register · 
Username: Password:
 ·  Forgot password?

Pink Floyd - Live In Venice (HDTVRip) 1989/2019 [2019, Rock, HDTVRip, 720p]

Reply to topic
DL-List and Torrent activity [Update пиров]
Size:  5.48 GB   |    Registered:  8 months 10 days   |    Completed:  3 times

Seeder not seen: 5 days

 
   
 
 
 
Author Message

Nestor_13 ®

Gender:

Longevity: 6 years 11 months

Posts: 25383

Post 15-Jan-2020 07:24

[Quote]

Pink Floyd - Live In Venice (HDTV-Rip) 1989/2019
Жанр: Rock
Продолжительность: 59 min. 55 sec
Год выпуска: 2019
Описание: 01. Shine On You Crazy Diamond, Part 1
02. Learning To Fly
03. Yet Another Movie
04. Round & Around
05. Sorrow
06. On The Turning Away
07. Time
08. Wish You Were Here
09. Comfortably Numb
10. Run Like Hell
11. Fireworks
Доп. информация: Am 15. Juli 1989 erreichen Pink Floyd im Rahmen ihrer "A Momentary Lapse of Reason-Tour" Venedig. Es ist das vorletzte Konzert der Tour und stellt die Band vor große
Качество: HDTVRip
Разрешение видео/развертка: 720p
Контейнер: TS
Видео кодек: H.264
Аудио кодек: AC3
Видео: AVC, 1280x720p 16:9, 11,4 Mbps, 50 fps
Аудио: AC3, 2 ch stereo: Sample rate:48 KHz, Bitrate: 448 Кb/s
Аудио 2: MPEG Audio Sample rate:48 KHz, Bitrate: 256 Кb/s
Аудио 3: MPEG Audio Sample rate:48 KHz, Bitrate: 192 Кb/s

Отчёт MediaInfo / BDInfo

Pink Floyd - Live In Venice.tsФормат : MPEG-TSРазмер файла : 5,48 ГбайтПродолжительность : 59 м. 55 с.Режим общего битрейта : ПеременныйОбщий поток : 13,1 Мбит/сек
ВидеоИдентификатор : 6510 (0x196E)Идентификатор меню : 11150 (0x2B8E)Формат : AVCФормат/Информация : Advanced Video CodecПрофиль формата : High@L4Параметр CABAC формата : ДаПараметр RefFrames формата : 6 кадровИдентификатор кодека : 27Продолжительность : 59 м. 55 с.Битрейт : 11,4 Мбит/секШирина : 1280 пикселейВысота : 720 пикселейСоотношение сторон : 16:9Частота кадров : 50,000 кадров/секЦветовое пространство : YUVСубдискретизация насыщенности : 4:2:0Битовая глубина : 8 битТип развёртки : ПрогрессивнаяБит/(Пиксели*Кадры) : 0.246Размер потока : 4,75 Гбайт (87%)Цветовой диапазон : LimitedОсновные цвета : BT.709Характеристики трансфера : BT.709Коэффициенты матрицы : BT.709
Аудио #1Идентификатор : 6520 (0x1978)Идентификатор меню : 11150 (0x2B8E)Формат : AC-3Формат/Информация : Audio Coding 3Параметр Endianness формата : BigИдентификатор кодека : 6Продолжительность : 59 м. 55 с.Вид битрейта : ПостоянныйБитрейт : 448 Кбит/секКаналы : 2 каналаРасположение каналов : Front: L RЧастота : 48,0 КГцЧастота кадров : 31,250 кадров/сек (1536 SPF)Битовая глубина : 16 битМетод сжатия : С потерямиРазмер потока : 192 Мбайт (3%)Язык : GermanServiceKind/String : Complete Main
Аудио #2Идентификатор : 6521 (0x1979)Идентификатор меню : 11150 (0x2B8E)Формат : MPEG AudioВерсия формата : Version 1Профиль формата : Layer 2Идентификатор кодека : 3Продолжительность : 59 м. 55 с.Вид битрейта : ПостоянныйБитрейт : 256 Кбит/секКаналы : 2 каналаЧастота : 48,0 КГцМетод сжатия : С потерямиРазмер потока : 110 Мбайт (2%)Язык : German
Аудио #3Идентификатор : 6522 (0x197A)Идентификатор меню : 11150 (0x2B8E)Формат : MPEG AudioВерсия формата : Version 1Профиль формата : Layer 2Идентификатор кодека : 3Продолжительность : 59 м. 55 с.Вид битрейта : ПостоянныйБитрейт : 192 Кбит/секКаналы : 2 каналаЧастота : 48,0 КГцМетод сжатия : С потерямиРазмер потока : 82,3 Мбайт (1%)
Аудио #4Идентификатор : 6523 (0x197B)Идентификатор меню : 11150 (0x2B8E)Формат : MPEG AudioВерсия формата : Version 1Профиль формата : Layer 2Идентификатор кодека : 3Продолжительность : 59 м. 55 с.Вид битрейта : ПостоянныйБитрейт : 192 Кбит/секКаналы : 2 каналаЧастота : 48,0 КГцМетод сжатия : С потерямиРазмер потока : 82,3 Мбайт (1%)Язык : Несколько языков
ПрочееИдентификатор : 6524 (0x197C)-100Идентификатор меню : 11150 (0x2B8E)Формат : TeletextЯзык : German

Скриншоты




[protorrent.xyz]_t_5828524
Torrent: Registered ·  [ 2020-01-15 07:23 ] ·  9f82321a4b845afcaa7ad22f23634329710fece5

28 KB

Status: checked
Completed: 3 times
Size: 5.48 GB
Rating: 
(Votes: 0)
Say thanks: 0  Thanks
 
Похожие темы
[Profile] [PM]
Display posts from previous:    
Reply to topic

The time now is: Today 14:09

All times are GMT + 7 Hours



You cannot post new topics in this forum
You cannot reply to topics in this forum
You cannot edit your posts in this forum
You cannot delete your posts in this forum
You cannot vote in polls in this forum
You cannot attach files in this forum
You can download files in this forum