Register · 
Username: Password:
 ·  Forgot password?

INXS - Live Baby Live 1991 [2019, New Wave/Rock, WEB-DL, 720p]

Reply to topic
DL-List and Torrent activity [Update пиров]
Size:  2.05 GB   |    Registered:  8 months 10 days   |    Completed:  2 times

Seeder not seen: 2 months 14 days

 
   
 
 
 
Author Message

Nestor_13 ®

Gender:

Longevity: 6 years 11 months

Posts: 25383

Post 15-Jan-2020 07:24

[Quote]

INXS - Live Baby Live 1991
Жанр: New Wave/Rock
Продолжительность: 00:57:11
Год выпуска: 2019
Описание: Урезанная версия, показанная на BBC 2 28.12.2019
Треклист:
1. Guns In the Sky
2. New Sensation
3. Disappear
4. By My Side
5. Original Sin
6. Bitter Tears
7. Suicide Blonde
8. What You Need
9. Kick
10. Need You Tonight
11. Never Tear Us Apart
12. Devil Inside
13. Shining Star
Качество: Web-DL
Разрешение видео/развертка: 720p
Контейнер: MKV
Видео кодек: H.264
Аудио кодек: AAC
Видео: AVC, 1280x720 (16:9), 50.000 fps, 5 013 kb/s
Аудио: AAC, 48.0 kHz, 2 ch, 128 kb/s

Отчёт MediaInfo / BDInfo

GeneralUnique ID : 67203695546176587751913028361528555040 (0x328EF601A4E1871146C34689DE003620)Complete name : T:\web-dl\INXS.Live.Baby.Live.1991.720p.iP.WEB-DL.AAC2.0.H264-Spekt0r.mkvFormat : MatroskaFormat version : Version 4File size : 2.05 GiBDuration : 57 min 10 sOverall bit rate : 5 144 kb/sMovie name : INXS.Live.Baby.Live.1991.720p.iP.WEB-DL.AAC2.0.H264-Spekt0rEncoded date : UTC 2019-12-30 01:07:22Writing application : mkvmerge v21.0.0 ('Tardigrades Will Inherit The Earth') 64-bitWriting library : libebml v1.3.5 + libmatroska v1.4.8
VideoID : 1Format : AVCFormat/Info : Advanced Video CodecFormat profile : High@L3.2Format settings : CABAC / 4 Ref FramesFormat settings, CABAC : YesFormat settings, Reference : 4 framesCodec ID : V_MPEG4/ISO/AVCDuration : 57 min 10 sBit rate : 5 013 kb/sWidth : 1 280 pixelsHeight : 720 pixelsDisplay aspect ratio : 16:9Frame rate mode : ConstantFrame rate : 50.000 FPSColor space : YUVChroma subsampling : 4:2:0Bit depth : 8 bitsScan type : ProgressiveBits/(Pixel*Frame) : 0.109Stream size : 2.00 GiB (97%)Language : EnglishDefault : YesForced : NoColor range : LimitedColor primaries : BT.709Transfer characteristics : BT.709Matrix coefficients : BT.709
AudioID : 2Format : AAC LCFormat/Info : Advanced Audio Codec Low ComplexityCodec ID : A_AAC-2Duration : 57 min 10 sBit rate : 128 kb/sChannel(s) : 2 channelsChannel layout : L RSampling rate : 48.0 kHzFrame rate : 46.875 FPS (1024 SPF)Compression mode : LossyDelay relative to video : -20 msStream size : 52.3 MiB (2%)Language : EnglishDefault : YesForced : No

Скриншоты


[protorrent.xyz]_t_5828557
Torrent: Registered ·  [ 2020-01-15 07:23 ] ·  f1dfff5dc42370350f2ea9d6e0cc56f5641c4884

11 KB

Status: checked
Completed: 2 times
Size: 2.05 GB
Rating: 
(Votes: 0)
Say thanks: 0  Thanks
 
Похожие темы
[Profile] [PM]
Display posts from previous:    
Reply to topic

The time now is: Today 14:46

All times are GMT + 7 Hours



You cannot post new topics in this forum
You cannot reply to topics in this forum
You cannot edit your posts in this forum
You cannot delete your posts in this forum
You cannot vote in polls in this forum
You cannot attach files in this forum
You can download files in this forum