Register · 
Username: Password:
 ·  Forgot password?

(Ethnic Jazz, Tango, Modern Classical) [CD] Giampaolo Bandini & Cesare Chiacchiaretta - Escualo - 2017, FLAC (tracks+.cue), lossless

Reply to topic
DL-List and Torrent activity [Update пиров]
Size:  431 MB   |    Registered:  6 months 7 days   |    Completed:  0 times

Seeder not seen: Never

 
   
 
 
 
Author Message

kadSM ®

Gender:

Longevity: 6 years 9 months

Posts: 21674

Post 06-Jan-2020 01:15

[Quote]

Giampaolo Bandini & Cesare Chiacchiaretta / Escualo
Жанр: Ethnic Jazz, Tango, Modern Classical
Носитель: CD
Страна-производитель диска (релиза): Italy
Год издания: 2017
Издатель (лейбл): Decca
Номер по каталогу: 481 4984
Страна исполнителя (группы): Italy
Аудиокодек: FLAC (*.flac)
Тип рипа: tracks+.cue
Продолжительность: 68:40
Источник: собственный рип
Наличие сканов в содержимом раздачи: да
Треклист:
Astor Piazzolla (1921-1992)
1. Escualo 3:34
2. Ave Maria 6:10
3. Muerte Del Angel 3:31
4. Milonga Del Angel 7:14
5. Suite Troileana - Cadenza 5:12
6. Suite Troileana - Bandoneon 4:10
7. Suite Troileana - Escolaso 4:44
8. Suite Troileana - Whisky 4:38
9. Suite Troileana - Zita 4:50
10. Chiquilin De Bachin 4:40
Roberto Molinelli (1963)
11. Milonga Para Astor* 5:54
Astor Piazzolla
12. Oblivion 4:46
13. Libertango 3:56
Luis Bacalov (1933)
14. Il Postino 4:41 "

Лог создания рипа

Exact Audio Copy V1.3 from 2. September 2016
Отчёт EAC об извлечении, выполненном 5. января 2020, 14:09
Giampaolo Bandini, Cesare Chiacchiaretta / Escualo
Дисковод: hp DVDRAM GT50N Adapter: 1 ID: 0
Режим чтения : ДостоверностьИспользование точного потока : ДаОтключение кэша аудио : ДаИспользование указателей C2 : Нет
Коррекция смещения при чтении : 103Способность читать области Lead-in и Lead-out : НетЗаполнение пропущенных сэмплов тишиной : ДаУдаление блоков с тишиной в начале и конце : НетПри вычислениях CRC использовались нулевые сэмплы : ДаИнтерфейс : Встроенный Win32-интерфейс для Win NT/2000Обработка зазоров : Добавлено к предыдущему треку
Выходной формат : Пользовательский кодировщикВыбранный битрейт : 128 kBit/sКачество : ВысокийДобавление ID3-тега : НетУтилита сжатия : C:\Program Files (x86)\Exact Audio Copy\Flac\flac.exeДополнительные параметры : -V -8 -T "Genre=%genre%" -T "Artist=%artist%" -T "Title=%title%" -T "Album=%albumtitle%" -T "Date=%year%" -T "Tracknumber=%tracknr%" -T "Comment=%comment%" %source%
TOC извлечённого CD
Трек | Старт | Длительность | Начальный сектор | Конечный сектор --------------------------------------------------------------------- 1 | 0:00.00 | 3:37.36 | 0 | 16310 2 | 3:37.36 | 6:13.19 | 16311 | 44304 3 | 9:50.55 | 3:34.19 | 44305 | 60373 4 | 13:24.74 | 7:17.57 | 60374 | 93205 5 | 20:42.56 | 5:12.47 | 93206 | 116652 6 | 25:55.28 | 4:13.29 | 116653 | 135656 7 | 30:08.57 | 4:47.38 | 135657 | 157219 8 | 34:56.20 | 4:41.38 | 157220 | 178332 9 | 39:37.58 | 4:53.57 | 178333 | 200364 10 | 44:31.40 | 4:43.19 | 200365 | 221608 11 | 49:14.59 | 5:57.00 | 221609 | 248383 12 | 55:11.59 | 4:49.00 | 248384 | 270058 13 | 60:00.59 | 3:59.00 | 270059 | 287983 14 | 63:59.59 | 4:41.01 | 287984 | 309059
Трек 1
Имя файла C:\Users\hosse\Desktop\Новая папка\01 Escualo.wav
Длина предзазора 0:00:02.00
Пиковый уровень 96.6 % Скорость извлечения 2.1 X Качество трека 99.9 % CRC теста B97B68CA CRC копии B97B68CA Трек не обнаружен в базе AccurateRip Копирование... OK
Трек 2
Имя файла C:\Users\hosse\Desktop\Новая папка\02 Ave Maria.wav
Длина предзазора 0:00:03.00
Пиковый уровень 55.3 % Скорость извлечения 2.9 X Качество трека 100.0 % CRC теста F014E662 CRC копии F014E662 Трек не обнаружен в базе AccurateRip Копирование... OK
Трек 3
Имя файла C:\Users\hosse\Desktop\Новая папка\03 Muerte del Angel.wav
Длина предзазора 0:00:03.00
Пиковый уровень 97.2 % Скорость извлечения 3.0 X Качество трека 100.0 % CRC теста 33BAE440 CRC копии 33BAE440 Трек не обнаружен в базе AccurateRip Копирование... OK
Трек 4
Имя файла C:\Users\hosse\Desktop\Новая папка\04 Milonga del Angel.wav
Длина предзазора 0:00:03.00
Пиковый уровень 95.8 % Скорость извлечения 3.6 X Качество трека 100.0 % CRC теста FB06CD04 CRC копии FB06CD04 Трек не обнаружен в базе AccurateRip Копирование... OK
Трек 5
Имя файла C:\Users\hosse\Desktop\Новая папка\05 Suite Troileana- Cadenza.wav
Длина предзазора 0:00:03.00
Пиковый уровень 81.5 % Скорость извлечения 3.5 X Качество трека 100.0 % CRC теста 72931B7D CRC копии 72931B7D Трек не обнаружен в базе AccurateRip Копирование... OK
Трек 6
Имя файла C:\Users\hosse\Desktop\Новая папка\06 Suite Troileana- Bandoneon.wav
Пиковый уровень 94.9 % Скорость извлечения 3.0 X Качество трека 100.0 % CRC теста 125D6261 CRC копии 125D6261 Трек не обнаружен в базе AccurateRip Копирование... OK
Трек 7
Имя файла C:\Users\hosse\Desktop\Новая папка\07 Suite Troileana- Escolaso.wav
Длина предзазора 0:00:03.00
Пиковый уровень 96.3 % Скорость извлечения 3.7 X Качество трека 99.9 % CRC теста 8325A4D0 CRC копии 8325A4D0 Трек не обнаружен в базе AccurateRip Копирование... OK
Трек 8
Имя файла C:\Users\hosse\Desktop\Новая папка\08 Suite Troileana- Whisky.wav
Длина предзазора 0:00:03.00
Пиковый уровень 95.9 % Скорость извлечения 3.8 X Качество трека 99.9 % CRC теста DE85E041 CRC копии DE85E041 Трек не обнаружен в базе AccurateRip Копирование... OK
Трек 9
Имя файла C:\Users\hosse\Desktop\Новая папка\09 Suite Troileana- Zita.wav
Длина предзазора 0:00:03.00
Пиковый уровень 96.4 % Скорость извлечения 4.5 X Качество трека 100.0 % CRC теста 2F883BB1 CRC копии 2F883BB1 Трек не обнаружен в базе AccurateRip Копирование... OK
Трек 10
Имя файла C:\Users\hosse\Desktop\Новая папка\10 Chiquilin de Bachin.wav
Длина предзазора 0:00:03.00
Пиковый уровень 91.6 % Скорость извлечения 4.7 X Качество трека 100.0 % CRC теста 8060084E CRC копии 8060084E Трек не обнаружен в базе AccurateRip Копирование... OK
Трек 11
Имя файла C:\Users\hosse\Desktop\Новая папка\11 Milonga para Astor.wav
Длина предзазора 0:00:03.00
Пиковый уровень 97.2 % Скорость извлечения 5.0 X Качество трека 100.0 % CRC теста B95BB0CD CRC копии B95BB0CD Трек не обнаружен в базе AccurateRip Копирование... OK
Трек 12
Имя файла C:\Users\hosse\Desktop\Новая папка\12 Oblivion.wav
Длина предзазора 0:00:03.00
Пиковый уровень 76.3 % Скорость извлечения 5.1 X Качество трека 100.0 % CRC теста FFA7BB57 CRC копии FFA7BB57 Трек не обнаружен в базе AccurateRip Копирование... OK
Трек 13
Имя файла C:\Users\hosse\Desktop\Новая папка\13 Libertango.wav
Длина предзазора 0:00:03.00
Пиковый уровень 96.5 % Скорость извлечения 5.0 X Качество трека 100.0 % CRC теста A1DFD02D CRC копии A1DFD02D Трек не обнаружен в базе AccurateRip Копирование... OK
Трек 14
Имя файла C:\Users\hosse\Desktop\Новая папка\14 Il postino.wav
Длина предзазора 0:00:03.00
Пиковый уровень 72.5 % Скорость извлечения 5.3 X Качество трека 100.0 % CRC теста 4E43AA10 CRC копии 4E43AA10 Трек не обнаружен в базе AccurateRip Копирование... OK
Ни одного трека нет в базе AccurateRip
Ошибок не произошло
Конец отчёта
==== Контрольная сумма отчёта 3E1DB3478A96FF9598B0179BC6CB8A54B7A8A422912B51A49683B8AE26F26C5B ====

Содержание индексной карты (.CUE)

REM GENRE TangoREM DATE 2017REM DISCID C810180EREM COMMENT "ExactAudioCopy v1.3"CATALOG 0028948149841PERFORMER "Giampaolo Bandini, Cesare Chiacchiaretta"TITLE "Escualo"REM COMPOSER "Astor Piazzolla, Roberto Molinelli, Luis Bacalov"FILE "01 Escualo.wav" WAVE TRACK 01 AUDIO TITLE "Escualo" PERFORMER "Giampaolo Bandini, Cesare Chiacchiaretta" REM COMPOSER "Astor Piazzolla" ISRC ITUM71700027 INDEX 01 00:00:00 TRACK 02 AUDIO TITLE "Ave Maria" PERFORMER "Giampaolo Bandini, Cesare Chiacchiaretta" REM COMPOSER "Astor Piazzolla" ISRC ITUM71700028 INDEX 00 03:34:36FILE "02 Ave Maria.wav" WAVE INDEX 01 00:00:00 TRACK 03 AUDIO TITLE "Muerte del Angel" PERFORMER "Giampaolo Bandini, Cesare Chiacchiaretta" REM COMPOSER "Astor Piazzolla" ISRC ITUM71700029 INDEX 00 06:10:19FILE "03 Muerte del Angel.wav" WAVE INDEX 01 00:00:00 TRACK 04 AUDIO TITLE "Milonga del Angel" PERFORMER "Giampaolo Bandini, Cesare Chiacchiaretta" REM COMPOSER "Astor Piazzolla" ISRC ITUM71700030 INDEX 00 03:31:19FILE "04 Milonga del Angel.wav" WAVE INDEX 01 00:00:00 TRACK 05 AUDIO TITLE "Suite Troileana: Cadenza" PERFORMER "Giampaolo Bandini, Cesare Chiacchiaretta" REM COMPOSER "Astor Piazzolla" ISRC ITUM71700031 INDEX 00 07:14:57FILE "05 Suite Troileana- Cadenza.wav" WAVE INDEX 01 00:00:00FILE "06 Suite Troileana- Bandoneon.wav" WAVE TRACK 06 AUDIO TITLE "Suite Troileana: Bandoneon" PERFORMER "Giampaolo Bandini, Cesare Chiacchiaretta" REM COMPOSER "Astor Piazzolla" ISRC ITUM71700032 INDEX 01 00:00:00 TRACK 07 AUDIO TITLE "Suite Troileana: Escolaso" PERFORMER "Giampaolo Bandini, Cesare Chiacchiaretta" REM COMPOSER "Astor Piazzolla" ISRC ITUM71700033 INDEX 00 04:10:29FILE "07 Suite Troileana- Escolaso.wav" WAVE INDEX 01 00:00:00 TRACK 08 AUDIO TITLE "Suite Troileana: Whisky" PERFORMER "Giampaolo Bandini, Cesare Chiacchiaretta" REM COMPOSER "Astor Piazzolla" ISRC ITUM71700034 INDEX 00 04:44:38FILE "08 Suite Troileana- Whisky.wav" WAVE INDEX 01 00:00:00 TRACK 09 AUDIO TITLE "Suite Troileana: Zita" PERFORMER "Giampaolo Bandini, Cesare Chiacchiaretta" REM COMPOSER "Astor Piazzolla" ISRC ITUM71700035 INDEX 00 04:38:38FILE "09 Suite Troileana- Zita.wav" WAVE INDEX 01 00:00:00 TRACK 10 AUDIO TITLE "Chiquilin de Bachin" PERFORMER "Giampaolo Bandini, Cesare Chiacchiaretta" REM COMPOSER "Astor Piazzolla" ISRC ITUM71700036 INDEX 00 04:50:57FILE "10 Chiquilin de Bachin.wav" WAVE INDEX 01 00:00:00 TRACK 11 AUDIO TITLE "Milonga para Astor" PERFORMER "Giampaolo Bandini, Cesare Chiacchiaretta, Stefano Cerrato, Francesco Cerrato,..." REM COMPOSER "Roberto Molinelli" ISRC ITUM71700037 INDEX 00 04:40:19FILE "11 Milonga para Astor.wav" WAVE INDEX 01 00:00:00 TRACK 12 AUDIO TITLE "Oblivion" PERFORMER "Giampaolo Bandini, Cesare Chiacchiaretta" REM COMPOSER "Astor Piazzolla" ISRC ITUM71700038 INDEX 00 05:54:00FILE "12 Oblivion.wav" WAVE INDEX 01 00:00:00 TRACK 13 AUDIO TITLE "Libertango" PERFORMER "Giampaolo Bandini, Cesare Chiacchiaretta" REM COMPOSER "Astor Piazzolla" ISRC ITUM71700039 INDEX 00 04:46:00FILE "13 Libertango.wav" WAVE INDEX 01 00:00:00 TRACK 14 AUDIO TITLE "Il postino" PERFORMER "Giampaolo Bandini, Cesare Chiacchiaretta, Francesco Cerrato, Stefano Cerrato" REM COMPOSER "Luis Bacalov" ISRC ITUM71700040 INDEX 00 03:56:00FILE "14 Il postino.wav" WAVE INDEX 01 00:00:00

Состав

Giampaolo Bandini - guitar
Cesare Chiacchiaretta - bandoneon
Francesco Cerrato - violin *"
Stefano Cerrato - cello *"
Anastsiya Petryshak - violin *
Federico Mazzucco - viola *
Federico Marchesano - double bass *
[protorrent.xyz]_t_5830478
Torrent: Registered ·  [ 2020-01-06 01:15 ] ·  cfe84237b3095a53f565a34fccae4769837e4479

19 KB

Status: checked
Completed: 0 times
Size: 431 MB
Rating: 
(Votes: 0)
Say thanks: 0  Thanks
 
Похожие темы
[Profile] [PM]
Display posts from previous:    
Reply to topic

The time now is: Today 18:58

All times are GMT + 7 Hours



You cannot post new topics in this forum
You cannot reply to topics in this forum
You cannot edit your posts in this forum
You cannot delete your posts in this forum
You cannot vote in polls in this forum
You cannot attach files in this forum
You can download files in this forum