Register · 
Username: Password:
 ·  Forgot password?

Концерт к Дню работника сельского хозяйства 2019.10.13 [2019, Pop, HDTV, 1080i]

Reply to topic
DL-List and Torrent activity [Update пиров]
Size:  6.65 GB   |    Registered:  10 months 27 days   |    Completed:  1 time

Seeder not seen: 1 month 13 days

 
   
 
 
 
Author Message

Shadow123 ®

Gender:

Longevity: 6 years 11 months

Posts: 17700

Post 29-Oct-2019 03:14

[Quote]

Концерт к Дню работника сельского хозяйства 2019.10.13
Жанр: Pop
Продолжительность: 01:20:00
Год выпуска: 2019
Описание: Телевизионная версия праздничного концерта ко Дню работника сельского хозяйства. В концерте принимают участие Вячеслав Добрынин, Юрий Антонов, Лев Лещенко, Надежда Кадышева, Полина Гагарина, Пелагея, Ольга Кормухина, Алексей Белов, Юлия Савичева, Витас, группа"Рондо", "Артик и Асти", Валерия, Любовь Успенская, Валерий Сюткин, Лолита, Игорь Николаев, Александр Олешко и другие популярные исполнители.
Ведущие: Николай Фоменко, Анастасия Макеева
Треклист:
01. Хор Краснодарской филармонии и ансамбль танца и песни «Кубанская казачья вольница» — «Русь-ярмарка»
02. Юрий Антонов — «Поверь в мечту»
03. Любовь Успенская и цыганский шоу-театр «Табор возвращается» — «Гитара»
04. Анастасия Спиридонова — «Сто раз»
05. «Земляне» — «Одиночество»
06. Игорь Николаев — «Поздравляю»
07. Вячеслав Добрынин — «Попурри»
08. Юлия Проскурякова — «Мой мужчина»
09. Ольга Кормухина и Алексей Белов — «К тебе»
10. Жасмин — «Сильней огня»
11. Александр Олешко и Хор Краснодарской филармонии — «Россия мне в сердце стучится»
12. Пелагея — «Ой, то не вечер»
13. Валерий Сюткин и Ананстасия Макеева — «Красавчик»
14. «Сказки» — «Калинка»
15. Валентина Бирюкова — «Россия»
16. Александр Иванов и «Рондо» — «Боже, какой пустяк»
17. Елена Север — «Схожу с ума»
18. «Артик и Асти» и Артем Качер — «Грустный дэнс»
19. Сергей Волчков и Детский хор радио и телевидения России — «Луч солнца золотого»
20. Надежда Кадышева и Глеб Матвейчук — «Широка река»
21. Лев Лещенко — «Приглашаю всех друзей»
22. Полина Гагарина — «Миллион голосов»
Качество: HDTV
Разрешение видео/развертка: 1080i
Контейнер: TS
Видео кодек: H.264
Аудио кодек: AC3
Видео: H264; 1920x1080 (16:9); 25.000 fps; ~10.7 Mb/s
Аудио : AC3, 6 channels, 48000Hz, 384 Кбит/сек
Аудио 2: MP2, 2 channels, 48000Hz, 192 Кбит/сек

Отчёт MediaInfo / BDInfo

GeneralID : 1 (0x1)Complete name : H:\1\Концерт к Дню работника сельского хозяйства 2019.10.13.tsFormat : MPEG-TSFile size : 6.65 GiBDuration : 1 h 20 minOverall bit rate mode : VariableOverall bit rate : 11.9 Mb/s
VideoID : 1904 (0x770)Menu ID : 904 (0x388)Format : AVCFormat/Info : Advanced Video CodecFormat profile : High@L4Format settings : CABAC / 3 Ref FramesFormat settings, CABAC : YesFormat settings, Reference fra : 3 framesCodec ID : 27Duration : 1 h 20 minBit rate : 10.7 Mb/sWidth : 1 920 pixelsHeight : 1 080 pixelsDisplay aspect ratio : 16:9Frame rate : 25.000 FPSStandard : ComponentColor space : YUVChroma subsampling : 4:2:0Bit depth : 8 bitsScan type : InterlacedScan type, store method : Separated fieldsScan order : Top Field FirstBits/(Pixel*Frame) : 0.207Stream size : 6.00 GiB (90%)Color range : LimitedColor primaries : BT.709Transfer characteristics : BT.709Matrix coefficients : BT.709
Audio #1ID : 2904 (0xB58)Menu ID : 904 (0x388)Format : AC-3Format/Info : Audio Coding 3Commercial name : Dolby DigitalCodec ID : 6Duration : 1 h 20 minBit rate mode : ConstantBit rate : 384 kb/sChannel(s) : 6 channelsChannel layout : L R C LFE Ls RsSampling rate : 48.0 kHzFrame rate : 31.250 FPS (1536 SPF)Bit depth : 16 bitsCompression mode : LossyStream size : 220 MiB (3%)Language : RussianService kind : Complete Main
Audio #2ID : 2905 (0xB59)Menu ID : 904 (0x388)Format : MPEG AudioFormat version : Version 1Format profile : Layer 2Codec ID : 3Duration : 1 h 20 minBit rate mode : ConstantBit rate : 192 kb/sChannel(s) : 2 channelsSampling rate : 48.0 kHzFrame rate : 41.667 FPS (1152 SPF)Compression mode : LossyStream size : 110 MiB (2%)Language : Russian

Скриншоты




[protorrent.xyz]_t_5792525
Torrent: Registered ·  [ 2019-10-29 03:14 ] ·  ac34c0fcdb4c5cc560b5a2f81303b37fd6d05927

17 KB

Status: checked
Completed: 1 times
Size: 6.65 GB
Rating: 
(Votes: 0)
Say thanks: 0  Thanks
 
Похожие темы
[Profile] [PM]
Display posts from previous:    
Reply to topic

The time now is: Today 12:48

All times are GMT + 7 Hours



You cannot post new topics in this forum
You cannot reply to topics in this forum
You cannot edit your posts in this forum
You cannot delete your posts in this forum
You cannot vote in polls in this forum
You cannot attach files in this forum
You can download files in this forum