Register · 
Username: Password:
 ·  Forgot password?

Кричащая женщина / The Screaming Woman (Джек Смайт / Jack Smight) [1972, США, ужасы, триллер, драма, TVRip] VO (Drunk As Fuck) + Original Eng

Reply to topic
DL-List and Torrent activity [Update пиров]
Size:  750 MB   |    Registered:  7 months 26 days   |    Completed:  1 time

Seeder not seen: 2 months 4 days

 
   
 
 
 
Author Message

Andrew1225 ®

Gender:

Longevity: 6 years 8 months

Posts: 19588

Post 09-Oct-2019 22:23

[Quote]

Кричащая женщина / The Screaming Woman
Страна: США
Жанр: ужасы, триллер, драма
Год выпуска: 1972
Продолжительность: 01:13:48
Перевод: Одноголосый закадровый - Drunk As Fuck
Субтитры: нет
Оригинальная аудиодорожка: английский
Режиссер: Джек Смайт / Jack Smight
В ролях: Оливия де Хэвилленд, Эд Нельсон, Ларейн Стивенс, Джозеф Коттен, Уолтер Пиджон, Чарльз Робинсон, Александра Хэй, Лонни Чэпмен, Чарльз Дрэйк, Расселл Уиггинс, Джин Андруско, Расселл Торсон
Описание: По мотивам одноименного рассказа Рэя Брэдбери.
Лора Уайнент, богатая владелица поместья, возвращается домой из лечебницы, где она восстанавливалась от последствий сильного нервного срыва. Прогуливаясь по своим владениям, она слышит женский голос, доносящийся из-под земли и молящий о помощи. Лора пытается убедить своего сына и всех окружающих, что неподалеку под землей находится женщина, которую похоронили заживо. Однако все считают, что психическое состояние Лоры все еще нестабильно и у нее разыгралось воображение...

Доп. информация:
Фильмография Оливии де Хэвилленд
Качество видео: TVRip
Формат видео: AVI
Видео: 640x464 (1.38:1), 23.976 fps, XviD build 50 ~1149 kbps avg, 0.16 bit/pixel
Аудио 1: 48 kHz, MPEG Layer 3, 2 ch, ~128.00 kbps avg [RUS]
Аудио 2: 48 kHz, MPEG Layer 3, 2 ch, ~128.00 kbps avg [ENG]
БОЛЬШОЕ СПАСИБО radomyshl за релиз

MediaInfo

ОбщееПолное имя : ...\The Screaming Woman (1972).aviФормат : AVIФормат/Информация : Audio Video InterleaveРазмер файла : 750 МбайтПродолжительность : 1 ч. 13 м.Общий поток : 1421 Кбит/секПрограмма кодирования : VirtualDubMod 1.5.10.2 (build 2540/release)Библиотека кодирования : VirtualDubMod build 2540/release
ВидеоИдентификатор : 0Формат : MPEG-4 VisualПрофиль формата : Advanced Simple@L5Параметр BVOP формата : 2Параметр QPel формата : НетПараметр GMC формата : Без точки переходаПараметр матрицы формата : Default (H.263)Идентификатор кодека : XVIDИдентификатор кодека/Подсказка : XviDПродолжительность : 1 ч. 13 м.Битрейт : 1151 Кбит/секШирина : 640 пикселейВысота : 464 пикселяСоотношение сторон : 1,379Частота кадров : 23,976 (24000/1001) кадра/секЦветовое пространство : YUVСубдискретизация насыщенности : 4:2:0Битовая глубина : 8 битТип развёртки : ПрогрессивнаяМетод сжатия : С потерямиБит/(Пиксели*Кадры) : 0.162Размер потока : 608 Мбайт (81%)Библиотека кодирования : XviD 1.2.1 (UTC 2008-12-04)
Аудио #1Идентификатор : 1Формат : MPEG AudioВерсия формата : Version 1Профиль формата : Layer 3Идентификатор кодека : 55Идентификатор кодека/Подсказка : MP3Продолжительность : 1 ч. 13 м.Вид битрейта : ПостоянныйБитрейт : 128 Кбит/секКаналы : 2 каналаЧастота : 48,0 КГцМетод сжатия : С потерямиРазмер потока : 67,6 Мбайт (9%)Выравнивание : Соединение по промежуткамПродолжительность промежутка : 42 мс. (1,00 видеокадр)Время предзагрузки промежутка : 504 мс.Библиотека кодирования : LAME3.99rНастройки программы : -m s -V 4 -q 2 -lowpass 17 -b 128
Аудио #2Идентификатор : 2Формат : MPEG AudioВерсия формата : Version 1Профиль формата : Layer 3Идентификатор кодека : 55Идентификатор кодека/Подсказка : MP3Продолжительность : 1 ч. 13 м.Вид битрейта : ПостоянныйБитрейт : 128 Кбит/секКаналы : 2 каналаЧастота : 48,0 КГцМетод сжатия : С потерямиРазмер потока : 67,6 Мбайт (9%)Выравнивание : Соединение по промежуткамПродолжительность промежутка : 42 мс. (1,00 видеокадр)Время предзагрузки промежутка : 504 мс.Библиотека кодирования : LAME3.99rНастройки программы : -m s -V 4 -q 2 -lowpass 17 -b 128

Скриншоты

[protorrent.xyz]_t_5781656
Torrent: Registered ·  [ 2019-10-09 22:21 ] ·  28bbd5cc925cb0e1e30ec64fa18dcb2969859b3f

15 KB

Status: checked
Completed: 1 times
Size: 750 MB
Rating: 
(Votes: 0)
Say thanks: 0  Thanks
 
Похожие темы
[Profile] [PM]
Display posts from previous:    
Reply to topic

The time now is: Today 13:35

All times are GMT + 7 Hours



You cannot post new topics in this forum
You cannot reply to topics in this forum
You cannot edit your posts in this forum
You cannot delete your posts in this forum
You cannot vote in polls in this forum
You cannot attach files in this forum
You can download files in this forum