Register · 
Username: Password:
 ·  Forgot password?

(Medieval Neofolk | Ethereal) [WEB] Unto Ashes - Pretty Haunted Things - 2019, FLAC (tracks), lossless

Reply to topic
DL-List and Torrent activity [Update пиров]
Size:  214 MB   |    Registered:  1 year   |    Completed:  0 times

Seeder not seen: Never

 
   
 
 
 
Author Message

Nestor_13 ®

Gender:

Longevity: 6 years 9 months

Posts: 24407

Post 10-Jun-2019 11:29

[Quote]



Unto Ashes

Pretty Haunted Things





• Жанр: Medieval Neofolk | Ethereal
• Носитель: WEB
• Год издания: 2019
• Страна: USA
• Аудиокодек: FLAC (*.flac)
• Тип рипа: tracks
• Продолжительность: 00:42:01
internet
• Наличие сканов: front

01 - I’m Living in a Coma (00:06:25)
02 - Letter from Choco to Melody (00:03:11)
03 - Alone (words Edgar Allen Poe) (00:03:28)
04 - I’m Too High (00:05:13)
05 - My Dying Machine (00:05:04)
06 - For My Funeral (00:04:18)
07 - Intertwined (00:02:17)
08 - White Noise (00:02:06)
09 - Not Here (00:01:36)
10 - Don’t Ask Me If I’m Crazy (00:03:52)
11 - Fall Leaves Fall (words Emily Bronte) (00:02:49)
12 - Hidden (00:01:38)
--

• Лог DRM •

foobar2000 1.4.2 / Dynamic Range Meter 1.1.1log date: 2019-06-09 18:05:59
--------------------------------------------------------------------------------Analyzed: Unto Ashes / Pretty Haunted Things--------------------------------------------------------------------------------
DR Peak RMS Duration Track--------------------------------------------------------------------------------DR10 -2.52 dB -17.01 dB 6:25 01-I’m Living in a ComaDR8 -3.87 dB -15.33 dB 3:12 02-Letter from Choco to MelodyDR11 -6.17 dB -20.42 dB 3:28 03-Alone (words Edgar Allen Poe)DR9 -3.57 dB -14.93 dB 5:13 04-I’m Too HighDR10 -2.18 dB -14.45 dB 5:04 05-My Dying MachineDR9 -2.98 dB -15.56 dB 4:19 06-For My FuneralDR10 -3.38 dB -16.82 dB 2:18 07-IntertwinedDR10 -6.32 dB -21.06 dB 2:07 08-White NoiseDR10 -5.40 dB -19.00 dB 1:37 09-Not HereDR9 -4.24 dB -15.60 dB 3:53 10-Don’t Ask Me If I’m CrazyDR9 -3.39 dB -15.89 dB 2:49 11-Fall Leaves Fall (words Emily Bronte)DR9 -7.12 dB -18.90 dB 1:38 12-Hidden--------------------------------------------------------------------------------
Number of tracks: 12Official DR value: DR9
Samplerate: 44100 HzChannels: 2Bits per sample: 16Bitrate: 591 kbpsCodec: FLAC================================================================================
-

• Лог проверки качества •

-----------------------
DON'T MODIFY THIS FILE
-----------------------
PERFORMER: auCDtect Task Manager, ver. 1.6.0 RC1 build 1.6.0.1Copyright (c) 2008-2010 y-soft. All rights reservedhttp://y-soft.org
ANALYZER: auCDtect: CD records authenticity detector, version 0.8.2Copyright (c) 2004 Oleg Berngardt. All rights reserved.Copyright (c) 2004 Alexander Djourik. All rights reserved.
FILE: 12 - Hidden.flac Size: 7296141 Hash: 4B037AB508D11A5C069506F5892B1B73 Accuracy: -m8 Conclusion: CDDA 100% Signature: A2E67BD15B788A65CA00413AB98BA785A6FE2360FILE: 11 - Fall Leaves Fall (words Emily Bronte).flac Size: 15843002 Hash: 310C3CAD7F5EB1986BB0F3C8F2E6EEBC Accuracy: -m8 Conclusion: CDDA 86% Signature: E5180AB2118629846AC8B5FBE00C3250E31F736EFILE: 10 - Don’t Ask Me If I’m Crazy.flac Size: 23908005 Hash: EA40B85498323BD505B85B91BC6917CE Accuracy: -m8 Conclusion: CDDA 100% Signature: AFCBB18A6D8BDB2F401B0D2DB018B829C46077F3FILE: 09 - Not Here.flac Size: 5940830 Hash: D80E89D01D76C26B1DC6E1E543F4BB5B Accuracy: -m8 Conclusion: CDDA 100% Signature: 9E9EC880BA61ABB376BECA9A083DBACE927F5CF4FILE: 08 - White Noise.flac Size: 9598750 Hash: C531D48B50315D84BF0428C7F80D8285 Accuracy: -m8 Conclusion: CDDA 100% Signature: 24FFFCDA75599543F66FC3F611EBBB698CD414D8FILE: 07 - Intertwined.flac Size: 12278661 Hash: 0558B03B4CE5F1365964280334D0161D Accuracy: -m8 Conclusion: CDDA 100% Signature: EBA0FF32BB1B223D61297F70EE246E8370F965ABFILE: 06 - For My Funeral.flac Size: 24927048 Hash: 9DA41F09FDCC0048448150047E982C7E Accuracy: -m8 Conclusion: CDDA 100% Signature: B54994A3574B6C7DA2D61225626FFB163A606121FILE: 05 - My Dying Machine.flac Size: 32102100 Hash: 70F6AC7150F575E6000A7944D3C59376 Accuracy: -m8 Conclusion: CDDA 100% Signature: 05F2F78C781D91636A9F4B2F91B65D4ABD4C2D5EFILE: 04 - I’m Too High.flac Size: 28653038 Hash: 161F72C60B2E50DC9F0835273F8438D8 Accuracy: -m8 Conclusion: CDDA 94% Signature: A71C04E7D668D861DA1E3FC608AD2435A664F1EEFILE: 03 - Alone (words Edgar Allen Poe).flac Size: 11445435 Hash: 89FBF5824B757AF35C63356C5D0410EF Accuracy: -m8 Conclusion: MPEG 95% Signature: D1B83B61D22B83F474072E1ED41A32DEEB4D3E25FILE: 02 - Letter from Choco to Melody.flac Size: 18309835 Hash: BCB3CB25D885AC73DEDB70FBB8BF5FEB Accuracy: -m8 Conclusion: CDDA 100% Signature: D2377ED8E6C81E6376F38F87544C7FEE4E07A7CDFILE: 01 - I’m Living in a Coma.flac Size: 33699945 Hash: AAF91C4242D17FAAA2CC3BF6C6DAAA2D Accuracy: -m8 Conclusion: CDDA 100% Signature: 0D697FE31E84B86F3AF39993117B5F81EB8537A6
-

• Скриншот подозрительных спектров •

-
[protorrent.xyz]_t_5742737
Torrent: Registered ·  [ 2019-06-10 11:29 ] ·  40b4a6a51910ac82824fd7030f9741d6192371ec

18 KB

Status: checked
Completed: 0 times
Size: 214 MB
Rating: 
(Votes: 0)
Say thanks: 0  Thanks
 
Похожие темы
[Profile] [PM]
Display posts from previous:    
Reply to topic

The time now is: Today 15:43

All times are GMT + 7 Hours



You cannot post new topics in this forum
You cannot reply to topics in this forum
You cannot edit your posts in this forum
You cannot delete your posts in this forum
You cannot vote in polls in this forum
You cannot attach files in this forum
You can download files in this forum