Register · 
Username: Password:
 ·  Forgot password?

(Harsh Noise Wall / Noise) [CD] Werewolf Jerusalem [Richard Ramirez] - Confessions Of A Sex Maniac - 2011, FLAC (tracks+.cue), lossless

Reply to topic
DL-List and Torrent activity [Update пиров]
Size:  1.49 GB   |    Registered:  1 month 4 days   |    Completed:  0 times

Seeder not seen: Never

 
   
 
 
 
Author Message

FragoMan ®

Gender:

Longevity: 6 years 9 months

Posts: 27586

Post 28-May-2020 22:25

[Quote]

Werewolf Jerusalem / Confessions Of A Sex Maniac- Жанр: Harsh Noise Wall / Noise
Носитель: CD
Страна-производитель диска (релиза): UK
Год издания: 2011
Издатель (лейбл): Second Layer Records
Номер по каталогу: SLR014
Страна исполнителя (группы): US
Аудиокодек: FLAC (*.flac)
Тип рипа: tracks+.cue
Продолжительность: 3:48:52
Источник: SoulSeek
Наличие сканов в содержимом раздачи: нет
-Треклист:-

CD1:

-01. Date For A Murder [2:11]
02. Because Of The Cats [20:27]
03. Your Sweet Body For Killing [8:30]
04. Dagger Eyes [15:28]
05. Interrabang [8:12]
06. Because Of The Cats (Live At House Of Tinnitus) [7:57]-

log

-Exact Audio Copy V1.0 beta 3 from 29. August 2011
EAC extraction logfile from 22. July 2013, 9:03
Werewolf Jerusalem / Confessions Of A Sex Maniac - Disc 1
Used drive : HL-DT-STDVDRAM GSA-H10N Adapter: 1 ID: 0
Read mode : Secure
Utilize accurate stream : Yes
Defeat audio cache : Yes
Make use of C2 pointers : No
Read offset correction : 667
Overread into Lead-In and Lead-Out : No
Fill up missing offset samples with silence : Yes
Delete leading and trailing silent blocks : No
Null samples used in CRC calculations : Yes
Used interface : Native Win32 interface for Win NT & 2000
Gap handling : Appended to previous track
Used output format : User Defined Encoder
Selected bitrate : 896 kBit/s
Quality : High
Add ID3 tag : No
Command line compressor : C:\Program Files\Exact Audio Copy\Flac\flac.exe
Additional command line options : -8 -V -T "ARTIST=%artist%" -T "TITLE=%title%" -T "ALBUM=%albumtitle%" -T "DATE=%year%" -T "TRACKNUMBER=%tracknr%" -T "GENRE=%genre%" -T "PERFORMER=%albuminterpret%" -T "COMPOSER=%composer%" %haslyrics%--tag-from-file=LYRICS="%lyricsfile%"%haslyrics% -T "ALBUMARTIST=%albumartist%" -T "DISCNUMBER=%cdnumber%" -T "TOTALDISCS=%totalcds%" -T "TOTALTRACKS=%numtracks%" -T "COMMENT=%comment%" %source% -o %dest%
TOC of the extracted CD
Track | Start | Length | Start sector | End sector
---------------------------------------------------------
1 | 0:00.00 | 2:10.72 | 0 | 9821
2 | 2:10.72 | 20:26.43 | 9822 | 101814
3 | 22:37.40 | 8:29.44 | 101815 | 140033
4 | 31:07.09 | 15:28.21 | 140034 | 209654
5 | 46:35.30 | 8:11.63 | 209655 | 246542
6 | 54:47.18 | 7:56.44 | 246543 | 282286
Track 1
Filename E:\My Documents\Flac\01 - Date For A Murder.wav
Pre-gap length 0:00:02.00
Peak level 28.5 %
Extraction speed 3.2 X
Track quality 100.0 %
Test CRC 9BE65D0C
Copy CRC 9BE65D0C
Track not present in AccurateRip database
Copy OK
Track 2
Filename E:\My Documents\Flac\02 - Because Of The Cats.wav
Pre-gap length 0:00:02.00
Peak level 26.4 %
Extraction speed 3.8 X
Track quality 100.0 %
Test CRC 14C22562
Copy CRC 14C22562
Track not present in AccurateRip database
Copy OK
Track 3
Filename E:\My Documents\Flac\03 - Your Sweet Body For Killing.wav
Pre-gap length 0:00:02.00
Peak level 27.7 %
Extraction speed 3.9 X
Track quality 99.9 %
Test CRC 7C429DEA
Copy CRC 7C429DEA
Track not present in AccurateRip database
Copy OK
Track 4
Filename E:\My Documents\Flac\04 - Dagger Eyes.wav
Pre-gap length 0:00:02.00
Peak level 28.4 %
Extraction speed 4.8 X
Track quality 99.9 %
Test CRC 4A3F1F7D
Copy CRC 4A3F1F7D
Track not present in AccurateRip database
Copy OK
Track 5
Filename E:\My Documents\Flac\05 - Interrabang.wav
Pre-gap length 0:00:02.00
Peak level 26.8 %
Extraction speed 5.5 X
Track quality 100.0 %
Test CRC 28D3EE6F
Copy CRC 28D3EE6F
Track not present in AccurateRip database
Copy OK
Track 6
Filename E:\My Documents\Flac\06 - Because Of The Cats (Live At House Of Tinnitus).wav
Pre-gap length 0:00:02.00
Peak level 38.9 %
Extraction speed 5.9 X
Track quality 100.0 %
Test CRC 5C256581
Copy CRC 5C256581
Track not present in AccurateRip database
Copy OK
None of the tracks are present in the AccurateRip database
No errors occurred
End of status report
---- CUETools DB Plugin V2.1.3
[CTDB TOCID: HHfNPQjp6YvJsfFx4gcRMdJkWxE-] disk not present in database, Submit result: HHfNPQjp6YvJsfFx4gcRMdJkWxE- has been uploaded
==== Log checksum 197EC9693CE60C1EDFB7B978082474FAFDB2973CFBCF398B6359817E34B1007D ====-

cue

-REM GENRE Noise
REM DATE 2011
REM DISCID 610EB306
REM COMMENT "ExactAudioCopy v1.0b3"
PERFORMER "Werewolf Jerusalem"
TITLE "Confessions Of A Sex Maniac - Disc 1"
FILE "01. Date For A Murder.wav" WAVE
TRACK 01 AUDIO
TITLE "Date For A Murder"
PERFORMER "Werewolf Jerusalem"
INDEX 01 00:00:00
TRACK 02 AUDIO
TITLE "Because Of The Cats"
PERFORMER "Werewolf Jerusalem"
INDEX 00 02:08:72
FILE "02. Because Of The Cats.wav" WAVE
INDEX 01 00:00:00
TRACK 03 AUDIO
TITLE "Your Sweet Body For Killing"
PERFORMER "Werewolf Jerusalem"
INDEX 00 20:24:43
FILE "03. Your Sweet Body For Killing.wav" WAVE
INDEX 01 00:00:00
TRACK 04 AUDIO
TITLE "Dagger Eyes"
PERFORMER "Werewolf Jerusalem"
INDEX 00 08:27:44
FILE "04. Dagger Eyes.wav" WAVE
INDEX 01 00:00:00
TRACK 05 AUDIO
TITLE "Interrabang"
PERFORMER "Werewolf Jerusalem"
INDEX 00 15:26:21
FILE "05. Interrabang.wav" WAVE
INDEX 01 00:00:00
TRACK 06 AUDIO
TITLE "Because Of The Cats (Live At House Of Tinnitus)"
PERFORMER "Werewolf Jerusalem"
INDEX 00 08:09:63
FILE "06. Because Of The Cats (Live At House Of Tinnitus).wav" WAVE
INDEX 01 00:00:00-
-

CD2:

-01. The Face At The Window [50:47]-

log

-Exact Audio Copy V1.0 beta 3 from 29. August 2011
EAC extraction logfile from 22. July 2013, 9:41
Werewolf Jerusalem / Confessions Of A Sex Maniac - Disc 2
Used drive : HL-DT-STDVDRAM GSA-H10N Adapter: 1 ID: 0
Read mode : Secure
Utilize accurate stream : Yes
Defeat audio cache : Yes
Make use of C2 pointers : No
Read offset correction : 667
Overread into Lead-In and Lead-Out : No
Fill up missing offset samples with silence : Yes
Delete leading and trailing silent blocks : No
Null samples used in CRC calculations : Yes
Used interface : Native Win32 interface for Win NT & 2000
Gap handling : Appended to previous track
Used output format : User Defined Encoder
Selected bitrate : 896 kBit/s
Quality : High
Add ID3 tag : No
Command line compressor : C:\Program Files\Exact Audio Copy\Flac\flac.exe
Additional command line options : -8 -V -T "ARTIST=%artist%" -T "TITLE=%title%" -T "ALBUM=%albumtitle%" -T "DATE=%year%" -T "TRACKNUMBER=%tracknr%" -T "GENRE=%genre%" -T "PERFORMER=%albuminterpret%" -T "COMPOSER=%composer%" %haslyrics%--tag-from-file=LYRICS="%lyricsfile%"%haslyrics% -T "ALBUMARTIST=%albumartist%" -T "DISCNUMBER=%cdnumber%" -T "TOTALDISCS=%totalcds%" -T "TOTALTRACKS=%numtracks%" -T "COMMENT=%comment%" %source% -o %dest%
TOC of the extracted CD
Track | Start | Length | Start sector | End sector
---------------------------------------------------------
1 | 0:00.00 | 50:47.21 | 0 | 228545
Track 1
Filename E:\My Documents\Flac\01 - The Face At The Window.wav
Pre-gap length 0:00:02.00
Peak level 26.7 %
Extraction speed 4.8 X
Track quality 100.0 %
Test CRC 9A4176F5
Copy CRC 9A4176F5
Track not present in AccurateRip database
Copy OK
None of the tracks are present in the AccurateRip database
No errors occurred
End of status report
---- CUETools DB Plugin V2.1.3
[CTDB TOCID: fpPjLkHPYlTixxB1B.FaL4vonGA-] disk not present in database, Submit result: fpPjLkHPYlTixxB1B.FaL4vonGA- has been uploaded
==== Log checksum 427C15915704CE2114AC08D9E7792EE158A1D28BFE67352D6C4D3C811D3160CB ====-

cue

-REM GENRE Noise
REM DATE 2011
REM DISCID 020BE701
REM COMMENT "ExactAudioCopy v1.0b3"
PERFORMER "Werewolf Jerusalem"
TITLE "Confessions Of A Sex Maniac - Disc 2"
FILE "01. The Face At The Window.wav" WAVE
TRACK 01 AUDIO
TITLE "The Face At The Window"
PERFORMER "Werewolf Jerusalem"
INDEX 01 00:00:00-
-

CD3:

-01. The Double [21:03]
02. Blood! Blood! Blood! [19:17]
03. Red Death,Black Death [7:30]-

log

-Exact Audio Copy V1.0 beta 3 from 29. August 2011
EAC extraction logfile from 22. July 2013, 10:20
Werewolf Jerusalem / Confessions Of A Sex Maniac - Disc 3
Used drive : HL-DT-STDVDRAM GSA-H10N Adapter: 1 ID: 0
Read mode : Secure
Utilize accurate stream : Yes
Defeat audio cache : Yes
Make use of C2 pointers : No
Read offset correction : 667
Overread into Lead-In and Lead-Out : No
Fill up missing offset samples with silence : Yes
Delete leading and trailing silent blocks : No
Null samples used in CRC calculations : Yes
Used interface : Native Win32 interface for Win NT & 2000
Gap handling : Appended to previous track
Used output format : User Defined Encoder
Selected bitrate : 896 kBit/s
Quality : High
Add ID3 tag : No
Command line compressor : C:\Program Files\Exact Audio Copy\Flac\flac.exe
Additional command line options : -8 -V -T "ARTIST=%artist%" -T "TITLE=%title%" -T "ALBUM=%albumtitle%" -T "DATE=%year%" -T "TRACKNUMBER=%tracknr%" -T "GENRE=%genre%" -T "PERFORMER=%albuminterpret%" -T "COMPOSER=%composer%" %haslyrics%--tag-from-file=LYRICS="%lyricsfile%"%haslyrics% -T "ALBUMARTIST=%albumartist%" -T "DISCNUMBER=%cdnumber%" -T "TOTALDISCS=%totalcds%" -T "TOTALTRACKS=%numtracks%" -T "COMMENT=%comment%" %source% -o %dest%
TOC of the extracted CD
Track | Start | Length | Start sector | End sector
---------------------------------------------------------
1 | 0:00.00 | 21:02.70 | 0 | 94719
2 | 21:02.70 | 19:16.72 | 94720 | 181491
3 | 40:19.67 | 7:30.04 | 181492 | 215245
Track 1
Filename E:\My Documents\Flac\01 - The Double.wav
Pre-gap length 0:00:02.00
Peak level 29.8 %
Extraction speed 4.9 X
Track quality 99.9 %
Test CRC BC12F524
Copy CRC BC12F524
Track not present in AccurateRip database
Copy OK
Track 2
Filename E:\My Documents\Flac\02 - Blood! Blood! Blood!.wav
Pre-gap length 0:00:02.00
Peak level 26.5 %
Extraction speed 6.9 X
Track quality 100.0 %
Test CRC 2210EB05
Copy CRC 2210EB05
Track not present in AccurateRip database
Copy OK
Track 3
Filename E:\My Documents\Flac\03 - Red Death,Black Death.wav
Pre-gap length 0:00:02.00
Peak level 34.4 %
Extraction speed 5.1 X
Track quality 100.0 %
Test CRC 2C0E3EAC
Copy CRC 2C0E3EAC
Track not present in AccurateRip database
Copy OK
None of the tracks are present in the AccurateRip database
No errors occurred
End of status report
---- CUETools DB Plugin V2.1.3
[CTDB TOCID: 7cZHLk7DjYuZ.k8Axv07XFyKtms-] disk not present in database, Submit result: 7cZHLk7DjYuZ.k8Axv07XFyKtms- has been uploaded
==== Log checksum C6D810F7332C8B7621D050C4A1006335E782CA777D1322A69C4B53F2AB530AF6 ====-

cue

-REM GENRE Noise
REM DATE 2011
REM DISCID 180B3503
REM COMMENT "ExactAudioCopy v1.0b3"
PERFORMER "Werewolf Jerusalem"
TITLE "Confessions Of A Sex Maniac - Disc 3"
FILE "01. The Double.wav" WAVE
TRACK 01 AUDIO
TITLE "The Double"
PERFORMER "Werewolf Jerusalem"
INDEX 01 00:00:00
TRACK 02 AUDIO
TITLE "Blood! Blood! Blood!"
PERFORMER "Werewolf Jerusalem"
INDEX 00 21:00:70
FILE "02. Blood! Blood! Blood!.wav" WAVE
INDEX 01 00:00:00
TRACK 03 AUDIO
TITLE "Red Death/Black Death"
PERFORMER "Werewolf Jerusalem"
INDEX 00 19:14:72
FILE "03. Red Death,Black Death.wav" WAVE
INDEX 01 00:00:00-
-

CD4:

-01. Untitled I (With Baculum) [9:33]
02. Untitled II (With The Whitehorse) [7:55]
03. Untitled III (With The Painful Vigil) [11:39]
04. Untitled IV (With The Rita) [8:01]
05. Untitled V (With I Spit On Your Grave) [9:52]
06. Untitled VI (With Non Ho Sonno) [12:12]
07. Untitled VII (With Tissa Mawartyassari) [8:20]-

log

-Exact Audio Copy V1.0 beta 3 from 29. August 2011
EAC extraction logfile from 22. July 2013, 11:02
Werewolf Jerusalem / Confessions Of A Sex Maniac - Disc 4
Used drive : HL-DT-STDVDRAM GSA-H10N Adapter: 1 ID: 0
Read mode : Secure
Utilize accurate stream : Yes
Defeat audio cache : Yes
Make use of C2 pointers : No
Read offset correction : 667
Overread into Lead-In and Lead-Out : No
Fill up missing offset samples with silence : Yes
Delete leading and trailing silent blocks : No
Null samples used in CRC calculations : Yes
Used interface : Native Win32 interface for Win NT & 2000
Gap handling : Appended to previous track
Used output format : User Defined Encoder
Selected bitrate : 896 kBit/s
Quality : High
Add ID3 tag : No
Command line compressor : C:\Program Files\Exact Audio Copy\Flac\flac.exe
Additional command line options : -8 -V -T "ARTIST=%artist%" -T "TITLE=%title%" -T "ALBUM=%albumtitle%" -T "DATE=%year%" -T "TRACKNUMBER=%tracknr%" -T "GENRE=%genre%" -T "PERFORMER=%albuminterpret%" -T "COMPOSER=%composer%" %haslyrics%--tag-from-file=LYRICS="%lyricsfile%"%haslyrics% -T "ALBUMARTIST=%albumartist%" -T "DISCNUMBER=%cdnumber%" -T "TOTALDISCS=%totalcds%" -T "TOTALTRACKS=%numtracks%" -T "COMMENT=%comment%" %source% -o %dest%
TOC of the extracted CD
Track | Start | Length | Start sector | End sector
---------------------------------------------------------
1 | 0:00.00 | 9:32.45 | 0 | 42944
2 | 9:32.45 | 7:54.55 | 42945 | 78549
3 | 17:27.25 | 11:38.54 | 78550 | 130953
4 | 29:06.04 | 8:01.04 | 130954 | 167032
5 | 37:07.08 | 9:52.36 | 167033 | 211468
6 | 46:59.44 | 12:11.55 | 211469 | 266348
7 | 59:11.24 | 8:20.05 | 266349 | 303853
Track 1
Filename E:\My Documents\Flac\01 - Untitled I (With Baculum).wav
Pre-gap length 0:00:02.00
Peak level 100.0 %
Extraction speed 5.0 X
Track quality 100.0 %
Test CRC 2D0B3362
Copy CRC 2D0B3362
Track not present in AccurateRip database
Copy OK
Track 2
Filename E:\My Documents\Flac\02 - Untitled II (With The Whitehorse).wav
Pre-gap length 0:00:02.00
Peak level 23.2 %
Extraction speed 5.3 X
Track quality 99.9 %
Test CRC F52639FF
Copy CRC F52639FF
Track not present in AccurateRip database
Copy OK
Track 3
Filename E:\My Documents\Flac\03 - Untitled III (With The Painful Vigil).wav
Pre-gap length 0:00:02.00
Peak level 30.9 %
Extraction speed 6.5 X
Track quality 100.0 %
Test CRC DCD35C67
Copy CRC DCD35C67
Track not present in AccurateRip database
Copy OK
Track 4
Filename E:\My Documents\Flac\04 - Untitled IV (With The Rita).wav
Pre-gap length 0:00:02.00
Peak level 27.0 %
Extraction speed 6.7 X
Track quality 99.9 %
Test CRC 98ECF6D4
Copy CRC 98ECF6D4
Track not present in AccurateRip database
Copy OK
Track 5
Filename E:\My Documents\Flac\05 - Untitled V (With I Spit On Your Grave).wav
Pre-gap length 0:00:02.00
Peak level 25.9 %
Extraction speed 7.2 X
Track quality 100.0 %
Test CRC 25371AA6
Copy CRC 25371AA6
Track not present in AccurateRip database
Copy OK
Track 6
Filename E:\My Documents\Flac\06 - Untitled VI (With Non Ho Sonno).wav
Pre-gap length 0:00:02.00
Peak level 29.7 %
Extraction speed 7.4 X
Track quality 99.9 %
Test CRC 6F5E6DAB
Copy CRC 6F5E6DAB
Track not present in AccurateRip database
Copy OK
Track 7
Filename E:\My Documents\Flac\07 - Untitled VII (With Tissa Mawartyassari).wav
Pre-gap length 0:00:02.00
Peak level 29.7 %
Extraction speed 8.0 X
Track quality 100.0 %
Test CRC C956EB88
Copy CRC C956EB88
Track not present in AccurateRip database
Copy OK
None of the tracks are present in the AccurateRip database
No errors occurred
End of status report
---- CUETools DB Plugin V2.1.3
[CTDB TOCID: Ao4fiJiOs0E3BJ4kavRCGSHUulk-] disk not present in database, Submit result: Ao4fiJiOs0E3BJ4kavRCGSHUulk- has been uploaded
==== Log checksum F90852C643BCAEA812C630F2A00C97990EB0FABE3EB7887CAAE7BD8D08E369D0 ====-

cue

-REM GENRE Noise
REM DATE 2011
REM DISCID 600FD307
REM COMMENT "ExactAudioCopy v1.0b3"
PERFORMER "Werewolf Jerusalem"
TITLE "Confessions Of A Sex Maniac - Disc 4"
FILE "01. Untitled I (With Baculum).wav" WAVE
TRACK 01 AUDIO
TITLE "Untitled I (With Baculum)"
PERFORMER "Werewolf Jerusalem"
INDEX 01 00:00:00
TRACK 02 AUDIO
TITLE "Untitled II (With The Whitehorse)"
PERFORMER "Werewolf Jerusalem"
INDEX 00 09:30:45
FILE "02. Untitled II (With The Whitehorse).wav" WAVE
INDEX 01 00:00:00
TRACK 03 AUDIO
TITLE "Untitled III (With The Painful Vigil)"
PERFORMER "Werewolf Jerusalem"
INDEX 00 07:52:55
FILE "03. Untitled III (With The Painful Vigil).wav" WAVE
INDEX 01 00:00:00
TRACK 04 AUDIO
TITLE "Untitled IV (With The Rita)"
PERFORMER "Werewolf Jerusalem"
INDEX 00 11:36:54
FILE "04. Untitled IV (With The Rita).wav" WAVE
INDEX 01 00:00:00
TRACK 05 AUDIO
TITLE "Untitled V (With I Spit On Your Grave)"
PERFORMER "Werewolf Jerusalem"
INDEX 00 07:59:04
FILE "05. Untitled V (With I Spit On Your Grave).wav" WAVE
INDEX 01 00:00:00
TRACK 06 AUDIO
TITLE "Untitled VI (With Non Ho Sonno)"
PERFORMER "Werewolf Jerusalem"
INDEX 00 09:50:36
FILE "06. Untitled VI (With Non Ho Sonno).wav" WAVE
INDEX 01 00:00:00
TRACK 07 AUDIO
TITLE "Untitled VII (With Tissa Mawartyassari)"
PERFORMER "Werewolf Jerusalem"
INDEX 00 12:09:55
FILE "07. Untitled VII (With Tissa Mawartyassari).wav" WAVE
INDEX 01 00:00:00-
-
-
[protorrent.xyz]_t-5892462
Torrent: Registered ·  [ 2020-05-28 22:25 ] ·  ac90f4b79ef8882973b0d1703b7863bdf442590d

17 KB

Status: checked
Completed: 0 times
Size: 1.49 GB
Rating: 
(Votes: 0)
Say thanks: 0  Thanks
 
Похожие темы
[Profile] [PM]
Display posts from previous:    
Reply to topic

The time now is: Today 16:59

All times are GMT + 7 Hours



You cannot post new topics in this forum
You cannot reply to topics in this forum
You cannot edit your posts in this forum
You cannot delete your posts in this forum
You cannot vote in polls in this forum
You cannot attach files in this forum
You can download files in this forum