Register · 
Username: Password:
 ·  Forgot password?

(canadian,darkwave,gothic rock,world music) [CD] Rhea\'s Obsession – Re-Initiation (The Mudra Mixes) - 2000, FLAC (tracks+.cue), lossless

Reply to topic
DL-List and Torrent activity [Update пиров]
Size:  431 MB   |    Registered:  1 month 5 days   |    Completed:  0 times

Seeder not seen: Never

 
   
 
 
 
Author Message

Nestor_13 ®

Gender:

Longevity: 6 years 9 months

Posts: 24407

Post 28-May-2020 00:40

[Quote]

RHEA'S OBSESSION Re-Initiation (The Mudra Mixes)
Жанр: Gothic Rock
Носитель: CD
Страна-производитель диска (релиза): US
Год издания: 2001
Издатель (лейбл): Metropolis Records
Страна исполнителя (группы): Canada
Аудиокодек: FLAC (*.flac)
Тип рипа: tracks+.cue
Продолжительность: 01:13:51
Источник: Children of koRn
Треклист:
01. Memento Mori
02. Waves (Take Me Alive)
03. Cun Lacoudhir (The Breaking Ice)
04. Strategies Of Movement
05. Death By Moonlight
06. Luft Und Erde
07. Hymn To Pan
08. Tsunami
09. Mantra
10. Tsunami (Mudra Mix)
11. Ocean (Mudra Mix)
12. Anxia
13. Breathe
14. Cun Lacoudhir (Haujobb Mudra Mix)

Лог создания рипа

Exact Audio Copy V0.99 prebeta 5 from 4. May 2009
EAC extraction logfile from 10. October 2009, 23:56
Rhea's Obsession / Re:Initiation
Used drive : TSSTcorpCD/DVDW SH-S182M Adapter: 3 ID: 0
Read mode : SecureUtilize accurate stream : YesDefeat audio cache : YesMake use of C2 pointers : No
Read offset correction : 6Overread into Lead-In and Lead-Out : NoFill up missing offset samples with silence : YesDelete leading and trailing silent blocks : NoNull samples used in CRC calculations : YesUsed interface : Native Win32 interface for Win NT & 2000Gap handling : Appended to previous track
Used output format : User Defined EncoderSelected bitrate : 768 kBit/sQuality : HighAdd ID3 tag : NoCommand line compressor : C:\Program Files\Exact Audio Copy\FLAC\FLAC.EXEAdditional command line options : -V -8 -T "artist=%a" -T "title=%t" -T "album=%g" -T "date=%y" -T "tracknumber=%n" -T "genre=%m" %s
TOC of the extracted CD
Track | Start | Length | Start sector | End sector --------------------------------------------------------- 1 | 0:00.00 | 6:02.59 | 0 | 27208 2 | 6:02.59 | 4:43.27 | 27209 | 48460 3 | 10:46.11 | 6:32.29 | 48461 | 77889 4 | 17:18.40 | 4:26.73 | 77890 | 97912 5 | 21:45.38 | 7:46.26 | 97913 | 132888 6 | 29:31.64 | 0:45.15 | 132889 | 136278 7 | 30:17.04 | 7:07.23 | 136279 | 168326 8 | 37:24.27 | 9:41.40 | 168327 | 211941 9 | 47:05.67 | 4:09.72 | 211942 | 230688 10 | 51:15.64 | 4:43.31 | 230689 | 251944 11 | 55:59.20 | 4:47.35 | 251945 | 273504 12 | 60:46.55 | 4:41.04 | 273505 | 294583 13 | 65:27.59 | 0:51.16 | 294584 | 298424 14 | 66:19.00 | 7:32.03 | 298425 | 332327
Track 1
Filename D:\My Music\Rhea's Obsession\Re Initiation\01 Memento Mori.wav
Pre-gap length 0:00:02.00
Peak level 92.4 % Track quality 100.0 % Test CRC 573A7160 Copy CRC 573A7160 Accurately ripped (confidence 3) [9BACDFD6] Copy OK
Track 2
Filename D:\My Music\Rhea's Obsession\Re Initiation\02 Waves (Take Me Alive).wav
Pre-gap length 0:00:02.00
Peak level 94.1 % Track quality 100.0 % Test CRC 3F598BED Copy CRC 3F598BED Accurately ripped (confidence 3) [FA7F4007] Copy OK
Track 3
Filename D:\My Music\Rhea's Obsession\Re Initiation\03 Cun Lacoudhir (The Breaking Ice).wav
Pre-gap length 0:00:02.00
Peak level 72.1 % Track quality 100.0 % Test CRC A801E217 Copy CRC A801E217 Accurately ripped (confidence 3) [82349AF2] Copy OK
Track 4
Filename D:\My Music\Rhea's Obsession\Re Initiation\04 Strategies of Movement.wav
Pre-gap length 0:00:02.00
Peak level 75.1 % Track quality 99.9 % Test CRC EE443056 Copy CRC EE443056 Accurately ripped (confidence 3) [80E13A4F] Copy OK
Track 5
Filename D:\My Music\Rhea's Obsession\Re Initiation\05 Death by Moonlight.wav
Pre-gap length 0:00:02.00
Peak level 77.0 % Track quality 100.0 % Test CRC 9E691E35 Copy CRC 9E691E35 Accurately ripped (confidence 3) [E5D5988A] Copy OK
Track 6
Filename D:\My Music\Rhea's Obsession\Re Initiation\06 Luft und Erde.wav
Pre-gap length 0:00:02.00
Peak level 67.4 % Track quality 100.0 % Test CRC 68351FD3 Copy CRC 68351FD3 Accurately ripped (confidence 3) [A2F255C5] Copy OK
Track 7
Filename D:\My Music\Rhea's Obsession\Re Initiation\07 Hymn to Pan.wav
Pre-gap length 0:00:02.00
Peak level 94.1 % Track quality 100.0 % Test CRC A0882B31 Copy CRC A0882B31 Accurately ripped (confidence 3) [DC274611] Copy OK
Track 8
Filename D:\My Music\Rhea's Obsession\Re Initiation\08 Tsunami.wav
Peak level 48.8 % Track quality 100.0 % Test CRC E4A70DF7 Copy CRC E4A70DF7 Accurately ripped (confidence 3) [2A696585] Copy OK
Track 9
Filename D:\My Music\Rhea's Obsession\Re Initiation\09 Mantra.wav
Peak level 84.5 % Track quality 100.0 % Test CRC BD56034D Copy CRC BD56034D Accurately ripped (confidence 3) [E4CC0E6F] Copy OK
Track 10
Filename D:\My Music\Rhea's Obsession\Re Initiation\10 Tsunami (Mudra Mix).wav
Pre-gap length 0:00:02.00
Peak level 95.2 % Track quality 100.0 % Test CRC D5111C5B Copy CRC D5111C5B Accurately ripped (confidence 3) [6DB3759F] Copy OK
Track 11
Filename D:\My Music\Rhea's Obsession\Re Initiation\11 Ocean (Mudra Mix).wav
Pre-gap length 0:00:02.00
Peak level 82.2 % Track quality 100.0 % Test CRC 8211E74B Copy CRC 8211E74B Accurately ripped (confidence 3) [80E48136] Copy OK
Track 12
Filename D:\My Music\Rhea's Obsession\Re Initiation\12 Anxia.wav
Peak level 92.8 % Track quality 100.0 % Test CRC BAFE85CB Copy CRC BAFE85CB Accurately ripped (confidence 3) [EF33B150] Copy OK
Track 13
Filename D:\My Music\Rhea's Obsession\Re Initiation\13 Breathe.wav
Pre-gap length 0:00:01.00
Peak level 75.5 % Track quality 100.0 % Test CRC 138D2CBB Copy CRC 138D2CBB Accurately ripped (confidence 3) [34788FEA] Copy OK
Track 14
Filename D:\My Music\Rhea's Obsession\Re Initiation\14 Cun Lacoudhir (Haujobb Mudra Mix).wav
Pre-gap length 0:00:01.00
Peak level 84.4 % Track quality 100.0 % Test CRC 6D355B39 Copy CRC 6D355B39 Accurately ripped (confidence 3) [4130736F] Copy OK
All tracks accurately ripped
No errors occurred
End of status report

Содержание индексной карты (.CUE)

REM ACCURATERIPID 00276772-01a1778b-d6114f0eREM GENRE "Gothic Rock"REM DATE 2001REM DISCID D6114F0EREM COMMENT "Label: © 06 December 2005 Metropolis /US /MET 199"PERFORMER "Rhea's Obsession"TITLE "Re: Initiation [The Mudra Mixes]"CATALOG "MET 199"FILE "01. Memento Mori.flac" WAVE  TRACK 01 AUDIO    TITLE "Memento Mori"    PERFORMER "Rhea's Obsession"    INDEX 01 00:00:00  TRACK 02 AUDIO    TITLE "Waves (Take Me Alive)"    PERFORMER "Rhea's Obsession"    INDEX 00 06:00:59FILE "02. Waves (Take Me Alive).flac" WAVE    INDEX 01 00:00:00  TRACK 03 AUDIO    TITLE "Cun Lacoudhir (The Breaking Ice)"    PERFORMER "Rhea's Obsession"    INDEX 00 04:41:27FILE "03. Cun Lacoudhir (The Breaking Ice).flac" WAVE    INDEX 01 00:00:00  TRACK 04 AUDIO    TITLE "Strategies Of Movement"    PERFORMER "Rhea's Obsession"    INDEX 00 06:30:29FILE "04. Strategies Of Movement.flac" WAVE    INDEX 01 00:00:00  TRACK 05 AUDIO    TITLE "Death By Moonlight"    PERFORMER "Rhea's Obsession"    INDEX 00 04:24:73FILE "05. Death By Moonlight.flac" WAVE    INDEX 01 00:00:00  TRACK 06 AUDIO    TITLE "Luft Und Erde"    PERFORMER "Rhea's Obsession"    INDEX 00 07:44:26FILE "06. Luft Und Erde.flac" WAVE    INDEX 01 00:00:00  TRACK 07 AUDIO    TITLE "Hymn To Pan"    PERFORMER "Rhea's Obsession"    INDEX 00 00:43:15FILE "07. Hymn To Pan.flac" WAVE    INDEX 01 00:00:00FILE "08. Tsunami.flac" WAVE  TRACK 08 AUDIO    TITLE "Tsunami"    PERFORMER "Rhea's Obsession"    INDEX 01 00:00:00FILE "09. Mantra.flac" WAVE  TRACK 09 AUDIO    TITLE "Mantra"    PERFORMER "Rhea's Obsession"    INDEX 01 00:00:00  TRACK 10 AUDIO    TITLE "Tsunami (Mudra Mix)"    PERFORMER "Rhea's Obsession"    INDEX 00 04:07:72FILE "10. Tsunami (Mudra Mix).flac" WAVE    INDEX 01 00:00:00  TRACK 11 AUDIO    TITLE "Ocean (Mudra Mix)"    PERFORMER "Rhea's Obsession"    INDEX 00 04:41:31FILE "11. Ocean (Mudra Mix).flac" WAVE    INDEX 01 00:00:00FILE "12. Anxia.flac" WAVE  TRACK 12 AUDIO    TITLE "Anxia"    PERFORMER "Rhea's Obsession"    INDEX 01 00:00:00  TRACK 13 AUDIO    TITLE "Breathe"    PERFORMER "Rhea's Obsession"    INDEX 00 04:40:04FILE "13. Breathe.flac" WAVE    INDEX 01 00:00:00  TRACK 14 AUDIO    TITLE "Cun Lacoudhir (Haujobb Mudra Mix)"    PERFORMER "Rhea's Obsession"    INDEX 00 00:50:16FILE "14. Cun Lacoudhir (Haujobb Mudra Mix).flac" WAVE    INDEX 01 00:00:00
[protorrent.xyz]_t-5882092
Torrent: Registered ·  [ 2020-05-28 00:40 ] ·  8b1270d0be15fd932131e156e7f146f9791220f1

18 KB

Status: checked
Completed: 0 times
Size: 431 MB
Rating: 
(Votes: 0)
Say thanks: 0  Thanks
 
Похожие темы
[Profile] [PM]
Display posts from previous:    
Reply to topic

The time now is: Today 16:55

All times are GMT + 7 Hours



You cannot post new topics in this forum
You cannot reply to topics in this forum
You cannot edit your posts in this forum
You cannot delete your posts in this forum
You cannot vote in polls in this forum
You cannot attach files in this forum
You can download files in this forum