Register · 
Username: Password:
 ·  Forgot password?

[TR24][OF] Belle Epoque - Miss Broadway - 1976 / 2020 (Disco)

Reply to topic
DL-List and Torrent activity [Update пиров]
Size:  580 MB   |    Registered:  1 month 16 days   |    Completed:  1 time

Seeder not seen: 11 days

 
   
 
 
 
Author Message

Dimas28 ®

Gender:

Longevity: 6 years 9 months

Posts: 26500

Post 17-May-2020 00:35

[Quote]

Belle Epoque / Miss Broadway
Формат записи/Источник записи: [TR24][OF]
Наличие водяных знаков: Нет
Год издания/переиздания диска: 1976 / 2020
Жанр: Disco
Издатель (лейбл): Shadybrook Records
Продолжительность: 00:31:02
Наличие сканов в содержимом раздачи: Только обложка альбома
Треклист:
1 Miss Broadway 07:24
2 Me and You 05:29
3 Losing You 04:06
4 Disco Sound: Black is Black, Pt. 1 / Why Don't You Lay Down / Black is Black, Pt. 2 14:03
Контейнер: FLAC (*.flac)
Тип рипа: tracks
Разрядность: 24/96
Формат: PCM
Количество каналов: 2.0

Лог проверки качества

foobar2000 1.1.10 / Dynamic Range Meter 1.1.1log date: 2020-05-14 15:29:25
--------------------------------------------------------------------------------Analyzed: Belle Epoque / Miss Broadway--------------------------------------------------------------------------------
DR Peak RMS Duration Track--------------------------------------------------------------------------------DR12 -1.21 dB -13.88 dB 7:25 ?-Miss BroadwayDR10 -1.22 dB -12.80 dB 5:29 ?-Me and YouDR12 -1.93 dB -16.60 dB 4:06 ?-Losing YouDR11 -1.21 dB -13.37 dB 14:04 ?-Disco Sound: Black is Black, Pt. 1 / Why Don't You Lay Down / Black is Black, Pt. 2--------------------------------------------------------------------------------
Number of tracks: 4Official DR value: DR11
Samplerate: 96000 HzChannels: 2Bits per sample: 24Bitrate: 2667 kbpsCodec: FLAC================================================================================

Скриншот спектра частот



Источник (релизер): http://www.qobuz.com/de-de/album/miss-broadway-belle-epoque/zb4g0jmmxj8ea
[protorrent.xyz]_t-5896548
Torrent: Registered ·  [ 2020-05-17 00:35 ] ·  fd4cde14460634c22919ff8ced3fa4366256b799

12 KB

Status: checked
Completed: 1 times
Size: 580 MB
Rating: 
(Votes: 0)
Say thanks: 0  Thanks
 
Похожие темы
[Profile] [PM]
Display posts from previous:    
Reply to topic

The time now is: Today 15:48

All times are GMT + 7 Hours



You cannot post new topics in this forum
You cannot reply to topics in this forum
You cannot edit your posts in this forum
You cannot delete your posts in this forum
You cannot vote in polls in this forum
You cannot attach files in this forum
You can download files in this forum