Register · 
Username: Password:
 ·  Forgot password?

[TR24][OF] STUB records - Music For Cinema (Collection) - 2020 (coldwave, electro-clash, soundtrack)

Reply to topic
DL-List and Torrent activity [Update пиров]
Size:  1.21 GB   |    Registered:  2 months 7 days   |    Completed:  0 times

Seeder not seen: Never

 
   
 
 
 
Author Message

Nestor_13 ®

Gender:

Longevity: 6 years 8 months

Posts: 23904

Post 28-Mar-2020 17:20

[Quote]

STUB records / Music For Cinema
Формат записи/Источник записи: [TR24][OF]
Наличие водяных знаков: Нет
Издание: Collection
Год издания/переиздания диска: 2020
Жанр: coldwave, electro-clash, soundtrack
Издатель / Релизер: STUB records
Продолжительность: 59:04
Наличие сканов: обложка
-
Треклист:
1. Disease 03:02
2. Following Gary 02:10
3. Split 02:14
4. Assumption 02:20
5. Expectation 02:28
6. Numan's Drift 02:10
7. Pandemia 02:25
8. Broadcasting 02:06
9. Agiotage 02:24
10. Statement 02:07
11. Overcoming 02:02
12. Investigation 02:18
13. Drowse 02:15
14.Diligence 02:16
15. Coronavirus 02:25
16. Continuity 01:18
17.Quarantine 02:12
18. Towards 01:50
19. Definition 02:08
20. Promenade 02:03
21. Composure 02:06
22. Levity 02:02
23. Insulation 00:52
24. Prudence 02:00
25. Selecter 01:57
26. Notification 01:56
27. Inevitability 01:05
28. Infection 01:41
29. Tension 01:12
-
Контейнер: FLAC (*.flac)
Тип рипа: tracks
-
Разрядность: 24/96
Формат: PCM
Количество каналов: 2.0
-

Динамический диапазон (DR)

foobar2000 1.4.1 / Замер динамического диапазона (DR) 1.1.1Дата отчёта:  2020-03-25 20:33:13
--------------------------------------------------------------------------------Анализ: STUB records / Music For Cinema--------------------------------------------------------------------------------
DR Пики RMS Продолжительность трека--------------------------------------------------------------------------------DR10 -0.46 дБ -12.05 дБ 3:02 01-DiseaseDR9 -0.20 дБ -10.12 дБ 2:10 02-Following GaryDR6 -0.24 дБ -8.90 дБ 2:14 03-SplitDR7 -0.41 дБ -9.02 дБ 2:20 04-AssumptionDR8 -0.41 дБ -9.56 дБ 2:28 05-ExpectationDR9 -0.33 дБ -10.52 дБ 2:10 06-Numan's DriftDR9 -0.25 дБ -11.34 дБ 2:25 07-PandemiaDR8 -0.41 дБ -9.07 дБ 2:06 08-BroadcastingDR7 -0.41 дБ -8.78 дБ 2:24 09-AgiotageDR7 -0.41 дБ -8.63 дБ 2:07 10-StatementDR8 -0.36 дБ -9.74 дБ 2:02 11-OvercomingDR8 -0.41 дБ -10.11 дБ 2:18 12-InvestigationDR11 -0.63 дБ -13.98 дБ 2:15 13-DrowseDR9 -0.20 дБ -10.93 дБ 2:16 14-DiligenceDR11 -0.48 дБ -13.19 дБ 2:25 15-CoronavirusDR8 -0.19 дБ -9.01 дБ 1:18 16-ContinuityDR9 -0.34 дБ -10.45 дБ 2:12 17-QuarantineDR10 -0.29 дБ -10.99 дБ 1:50 18-TowardsDR9 -0.30 дБ -11.37 дБ 2:08 19-DefinitionDR12 -0.39 дБ -13.12 дБ 2:03 20-PromenadeDR8 -0.19 дБ -9.96 дБ 2:06 21-ComposureDR8 -0.41 дБ -9.55 дБ 2:02 22-LevityDR10 -0.35 дБ -13.14 дБ 0:52 23-InsulationDR10 -0.49 дБ -12.33 дБ 2:00 24-PrudenceDR7 -0.41 дБ -8.89 дБ 1:57 25-SelecterDR7 -0.41 дБ -8.73 дБ 1:56 26-NotificationDR9 -0.49 дБ -13.29 дБ 1:05 27-InevitabilityDR9 -0.19 дБ -11.31 дБ 1:41 28-InfectionDR11 -0.34 дБ -12.51 дБ 1:12 29-Tension--------------------------------------------------------------------------------
Количество треков: 29Реальные значения DR: DR9
Частота: 96000 ГцКаналов: 2Разрядность: 24Битрейт: 3128 кбит/сКодек: FLAC================================================================================
-
[protorrent.xyz]_t-5871819
Torrent: Registered ·  [ 2020-03-28 17:20 ] ·  968ac85ca804888f0501c7cef89296cf211f5873

14 KB

Status: checked
Completed: 0 times
Size: 1.21 GB
Rating: 
(Votes: 0)
Say thanks: 0  Thanks
 
Похожие темы
[Profile] [PM]
Display posts from previous:    
Reply to topic

The time now is: Today 12:40

All times are GMT + 7 Hours



You cannot post new topics in this forum
You cannot reply to topics in this forum
You cannot edit your posts in this forum
You cannot delete your posts in this forum
You cannot vote in polls in this forum
You cannot attach files in this forum
You can download files in this forum