Register · 
Username: Password:
 ·  Forgot password?

Cornelius: Mellow Waves Visuals [2019, Indie Rock, Ambient, Experimental, Downtempo, Blu-ray, 1080i]

Reply to topic
DL-List and Torrent activity [Update пиров]
Size:  45.91 GB   |    Registered:  2 months 9 days   |    Completed:  0 times

Seeder not seen: Never

 
   
 
 
 
Author Message

god56 ®

Gender:

Longevity: 6 years 8 months

Posts: 28197

Post 28-Mar-2020 04:40

[Quote]

Cornelius: Mellow Waves Visuals
Жанр: Indie Rock, Ambient, Experimental, Downtempo
Продолжительность: 03:20:16
Год выпуска: 2019
Треклист:
Music Videos [01:00:02]
1 あなたがいるなら
2 いつか / どこか
3 未来の人へ
4 Surfing on Mind Wave pt 2
5 夢の中で
6 Helix / Spiral
7 Mellow Yellow Feel
8 The Spell of a Vanishing Loveliness
9 The Rain Song
10 Crepuscule
11. Audio Architecture -Cocktail Party in the AUDIO ARCHITECTURE-
12. Audio Architecture -線維状にある in fibrils-
13. Audio Architecture -airflow-
14. “Mellow Waves” Teasers #1~3
Mellow Waves Tour 2018 @Tokyo International Forum [01:23:37]
1. いつか / どこか
2. Point of View Point
3. Audio Architecture
4. Helix / Spiral
5. Drop
6. The Spell of a Vanishing Loveliness
7. Mellow Yellow Feel
8. Sonorama 1
9. 未来の人へ
10. Count 5 or 6
11. I Hate Hate
12. Surfing on Mind Wave pt2
13. 夢の中で
14. Beep It
15. Fit Song
16. Gum
17. Star Fruits Surf Rider
18. あなたがいるなら
Mellow Waves Tour Documentary [00:56:37]
Качество: Blu-ray
Разрешение видео/развертка: 1080i
Контейнер: BDMV
Видео кодек: H.264
Аудио кодек: PCM
Видео: MPEG-4 AVC Video / 27394 kbps / 1080i / 29.970 fps / 16:9 / High Profile 4.1
Аудио#1: Japanese / LPCM Audio / 2.0 / 96 kHz / 4608 kbps / 24-bit
Аудио#2: Japanese / DTS-HD Master Audio / 5.1 / 96 kHz / 3774 kbps / 24-bit (DTS Core: 6.1 / 48 kHz / 1509 kbps / 24-bit) (только в клипах)
Аудио#3: LPCM Audio / 2.0 / 48 kHz / 2304 kbps / 24-bit (только в документальном)
BDInfo
Disc Label:     CORNELIUS_MELLOW_WAVES_VISUALSDisc Size:      49,300,060,676 bytesProtection:     AACSBDInfo:         0.7.5.5
Notes:
BDINFO HOME: Cinema Squid (old) http://www.cinemasquid.com/blu-ray/tools/bdinfo UniqProject GitHub (new) http://github.com/UniqProject/BDInfo
INCLUDES FORUMS REPORT FOR: AVS Forum Blu-ray Audio and Video Specifications Thread http://www.avsforum.com/avs-vb/showthread.php?t=1155731
********************PLAYLIST: 00003.MPLS********************
Total   Video
Title                                                           Codec   Length  Movie Size      Disc Size       Bitrate Bitrate Main Audio Track                          Secondary Audio Track
-----                                                           ------  ------- --------------  --------------  ------- ------- ------------------                        ---------------------
00003.MPLS                                                      AVC     1:23:37 21,059,076,096  49,300,060,676  33.58   27.39   LPCM 2.0 4608Kbps (96kHz/24-bit)
DISC INFO:
Disc Label:     CORNELIUS_MELLOW_WAVES_VISUALS
Disc Size:      49,300,060,676 bytes
Protection:     AACS
BDInfo:         0.7.5.5
PLAYLIST REPORT:
Name:                   00003.MPLS
Length:                 1:23:37.278 (h:m:s.ms)
Size:                   21,059,076,096 bytes
Total Bitrate:          33.58 Mbps
VIDEO:
Codec                   Bitrate             Description
-----                   -------             -----------
MPEG-4 AVC Video        27394 kbps          1080i / 29.970 fps / 16:9 / High Profile 4.1
AUDIO:
Codec                           Language        Bitrate         Description
-----                           --------        -------         -----------
LPCM Audio                      Japanese        4608 kbps       2.0 / 96 kHz /  4608 kbps / 24-bit
FILES:
Name            Time In         Length          Size            Total Bitrate
----            -------         ------          ----            -------------
00009.M2TS      0:00:00.000     1:23:30.238     21,029,879,808  33,579
00010.M2TS      1:23:30.238     0:00:07.006     29,190,144      33,327
00000.M2TS      1:23:37.245     0:00:00.033     6,144           1,473
CHAPTERS:
Number          Time In         Length          Avg Video Rate  Max 1-Sec Rate  Max 1-Sec Time  Max 5-Sec Rate  Max 5-Sec Time  Max 10Sec Rate  Max 10Sec Time  Avg Frame Size  Max Frame Size  Max Frame Time
------          -------         ------          --------------  --------------  --------------  --------------  --------------  --------------  --------------  --------------  --------------  --------------
1               0:00:00.000     0:04:09.215     27,248 kbps     44,304 kbps     00:01:12.005    30,945 kbps     00:01:08.001    29,223 kbps     00:01:02.996    113,633 bytes   640,646 bytes   00:00:00.000
2               0:04:09.215     0:03:58.871     27,380 kbps     34,396 kbps     00:04:16.656    28,909 kbps     00:04:12.619    27,956 kbps     00:07:23.810    114,198 bytes   640,646 bytes   00:07:34.353
3               0:08:08.087     0:03:52.098     27,438 kbps     32,186 kbps     00:10:40.973    28,293 kbps     00:10:36.969    27,848 kbps     00:08:54.267    114,441 bytes   640,646 bytes   00:09:04.243
4               0:12:00.186     0:05:06.639     27,436 kbps     31,838 kbps     00:13:04.984    28,460 kbps     00:13:00.980    27,982 kbps     00:12:55.941    114,429 bytes   640,646 bytes   00:13:05.951
5               0:17:06.825     0:03:41.688     27,454 kbps     32,227 kbps     00:17:13.065    28,330 kbps     00:17:09.061    27,855 kbps     00:19:52.324    114,508 bytes   640,646 bytes   00:17:09.228
6               0:20:48.513     0:04:51.291     27,380 kbps     33,524 kbps     00:25:38.336    28,752 kbps     00:25:34.332    28,012 kbps     00:22:55.741    114,196 bytes   640,646 bytes   00:23:00.712
7               0:25:39.804     0:03:09.022     27,345 kbps     31,867 kbps     00:25:56.021    28,356 kbps     00:25:52.050    28,000 kbps     00:25:46.978    114,051 bytes   576,386 bytes   00:25:58.223
8               0:28:48.827     0:04:53.192     27,464 kbps     37,592 kbps     00:33:35.146    29,689 kbps     00:33:31.142    28,668 kbps     00:33:26.137    114,547 bytes   640,646 bytes   00:33:36.614
9               0:33:42.019     0:02:33.153     27,321 kbps     37,709 kbps     00:35:33.431    29,550 kbps     00:34:11.682    28,501 kbps     00:34:06.811    113,952 bytes   640,646 bytes   00:33:42.687
10              0:36:15.172     0:04:41.080     27,443 kbps     35,142 kbps     00:40:35.232    28,918 kbps     00:40:49.647    28,190 kbps     00:40:44.608    114,461 bytes   640,646 bytes   00:37:28.980
11              0:40:56.253     0:03:18.498     27,296 kbps     32,754 kbps     00:41:17.408    28,725 kbps     00:41:03.894    27,913 kbps     00:41:10.167    113,845 bytes   640,646 bytes   00:41:08.866
12              0:44:14.752     0:02:08.261     27,344 kbps     34,162 kbps     00:46:08.465    28,465 kbps     00:44:54.124    27,987 kbps     00:45:59.523    114,048 bytes   640,646 bytes   00:45:14.611
13              0:46:23.013     0:05:50.350     27,428 kbps     30,655 kbps     00:46:52.843    28,311 kbps     00:46:50.073    27,936 kbps     00:46:43.767    114,398 bytes   640,646 bytes   00:52:13.363
14              0:52:13.363     0:04:34.107     27,417 kbps     33,463 kbps     00:52:14.498    28,313 kbps     00:56:33.823    27,861 kbps     00:56:21.611    114,353 bytes   640,646 bytes   00:56:31.588
15              0:56:47.470     0:04:55.561     27,408 kbps     33,626 kbps     01:01:38.394    28,739 kbps     01:01:33.723    28,103 kbps     01:01:28.851    114,313 bytes   640,646 bytes   00:57:51.768
16              1:01:43.032     0:04:14.354     27,362 kbps     32,643 kbps     01:04:49.218    28,630 kbps     01:04:45.248    27,966 kbps     01:04:18.120    114,122 bytes   640,646 bytes   01:02:08.291
17              1:05:57.386     0:04:30.169     27,256 kbps     37,513 kbps     01:05:58.321    28,762 kbps     01:06:10.933    27,968 kbps     01:10:14.443    113,679 bytes   640,646 bytes   01:06:08.664
18              1:10:27.556     0:05:35.735     27,463 kbps     35,866 kbps     01:10:28.324    28,510 kbps     01:11:16.472    27,904 kbps     01:12:35.250    114,543 bytes   640,646 bytes   01:10:29.158
19              1:16:03.292     0:07:33.986     27,435 kbps     43,943 kbps     01:23:26.434    30,770 kbps     01:23:22.430    29,081 kbps     01:23:21.129    114,454 bytes   640,646 bytes   01:23:26.501
STREAM DIAGNOSTICS:
File            PID             Type            Codec           Language                Seconds                 Bitrate                 Bytes           Packets
----            ---             ----            -----           --------                --------------          --------------          -------------   -----
00009.M2TS      4113 (0x1011)   0x1B            AVC                                     5010.138                27,395                  17,156,550,032  93,329,993
00009.M2TS      4352 (0x1100)   0x80            LPCM            jpn (Japanese)          5010.138                4,614                   2,889,909,316   16,032,784
00010.M2TS      4113 (0x1011)   0x1B            AVC                                     6.874                   27,678                  23,780,323      129,350
00010.M2TS      4352 (0x1100)   0x80            LPCM            jpn (Japanese)          6.874                   4,706                   4,043,368       22,432
00000.M2TS      4113 (0x1011)   0x1B            AVC                                     0                       0                       2,414           14
QUICK SUMMARY:
Disc Label: CORNELIUS_MELLOW_WAVES_VISUALSDisc Size: 49,300,060,676 bytesProtection: AACSPlaylist: 00003.MPLSSize: 21,059,076,096 bytesLength: 1:23:37.278Total Bitrate: 33.58 MbpsVideo: MPEG-4 AVC Video / 27394 kbps / 1080i / 29.970 fps / 16:9 / High Profile 4.1Audio: Japanese / LPCM Audio / 2.0 / 96 kHz / 4608 kbps / 24-bit
********************PLAYLIST: 00002.MPLS********************[/pre]
Total   Video
Title                                                           Codec   Length  Movie Size      Disc Size       Bitrate Bitrate Main Audio Track                          Secondary Audio Track
-----                                                           ------  ------- --------------  --------------  ------- ------- ------------------                        ---------------------
00002.MPLS                                                      AVC     1:00:02 16,998,193,152  49,300,060,676  37.74   27.38   LPCM 2.0 4608Kbps (96kHz/24-bit)          DTS-HD Master 5.1 3774Kbps (96kHz/24-bit)
DISC INFO:
Disc Label:     CORNELIUS_MELLOW_WAVES_VISUALS
Disc Size:      49,300,060,676 bytes
Protection:     AACS
BDInfo:         0.7.5.5
PLAYLIST REPORT:
Name:                   00002.MPLS
Length:                 1:00:02.899 (h:m:s.ms)
Size:                   16,998,193,152 bytes
Total Bitrate:          37.74 Mbps
VIDEO:
Codec                   Bitrate             Description
-----                   -------             -----------
MPEG-4 AVC Video        27381 kbps          1080i / 29.970 fps / 16:9 / High Profile 4.1
AUDIO:
Codec                           Language        Bitrate         Description
-----                           --------        -------         -----------
LPCM Audio                      Japanese        4608 kbps       2.0 / 96 kHz /  4608 kbps / 24-bit
DTS-HD Master Audio             Japanese        3774 kbps       5.1 / 96 kHz /  3774 kbps / 24-bit (DTS Core: 6.1 / 48 kHz /  1509 kbps / 24-bit)
FILES:
Name            Time In         Length          Size            Total Bitrate
----            -------         ------          ----            -------------
00007.M2TS      0:00:00.000     0:59:55.858     16,967,350,272  37,749
00008.M2TS      0:59:55.858     0:00:07.006     30,836,736      35,207
00000.M2TS      1:00:02.865     0:00:00.033     6,144           1,473
CHAPTERS:
Number          Time In         Length          Avg Video Rate  Max 1-Sec Rate  Max 1-Sec Time  Max 5-Sec Rate  Max 5-Sec Time  Max 10Sec Rate  Max 10Sec Time  Avg Frame Size  Max Frame Size  Max Frame Time
------          -------         ------          --------------  --------------  --------------  --------------  --------------  --------------  --------------  --------------  --------------  --------------
1               0:00:00.000     0:06:11.738     27,373 kbps     36,071 kbps     00:06:10.370    29,187 kbps     00:06:06.366    28,231 kbps     00:06:01.361    114,159 bytes   640,646 bytes   00:00:00.000
2               0:06:11.738     0:03:55.735     27,394 kbps     42,174 kbps     00:10:05.838    30,389 kbps     00:10:01.834    28,993 kbps     00:09:56.829    114,257 bytes   640,646 bytes   00:06:11.771
3               0:10:07.473     0:04:39.612     27,439 kbps     41,558 kbps     00:14:45.517    28,717 kbps     00:12:27.279    28,082 kbps     00:12:22.274    114,444 bytes   640,646 bytes   00:10:07.506
4               0:14:47.086     0:05:42.275     27,335 kbps     39,324 kbps     00:20:27.793    29,566 kbps     00:20:23.789    28,699 kbps     00:20:18.784    114,011 bytes   640,646 bytes   00:14:47.119
5               0:20:29.361     0:04:14.821     27,357 kbps     44,502 kbps     00:24:31.703    30,992 kbps     00:24:28.500    29,204 kbps     00:24:22.694    114,100 bytes   640,646 bytes   00:24:32.571
6               0:24:44.182     0:03:40.853     27,479 kbps     41,930 kbps     00:28:23.401    30,720 kbps     00:28:19.397    29,091 kbps     00:28:14.392    114,612 bytes   640,646 bytes   00:24:44.216
7               0:28:25.036     0:04:48.888     27,347 kbps     44,022 kbps     00:33:12.256    30,686 kbps     00:33:07.485    29,024 kbps     00:33:03.247    114,058 bytes   640,646 bytes   00:28:25.070
8               0:33:13.925     0:03:02.515     27,344 kbps     31,301 kbps     00:36:15.439    28,264 kbps     00:36:11.435    27,792 kbps     00:36:06.430    114,046 bytes   640,646 bytes   00:33:13.958
9               0:36:16.440     0:02:52.739     27,433 kbps     43,652 kbps     00:39:06.744    30,764 kbps     00:39:03.507    29,046 kbps     00:38:57.735    114,420 bytes   640,646 bytes   00:36:16.474
10              0:39:09.180     0:03:33.379     27,434 kbps     44,189 kbps     00:42:39.657    30,564 kbps     00:42:35.653    29,030 kbps     00:42:30.648    114,424 bytes   640,646 bytes   00:39:09.213
11              0:42:42.560     0:05:06.572     27,468 kbps     43,958 kbps     00:47:46.630    30,867 kbps     00:47:42.626    29,085 kbps     00:47:37.621    114,564 bytes   640,646 bytes   00:42:42.593
12              0:47:49.132     0:04:50.790     27,306 kbps     43,883 kbps     00:48:50.694    30,619 kbps     00:52:34.251    29,005 kbps     00:52:28.445    113,889 bytes   640,646 bytes   00:47:49.166
13              0:52:39.923     0:04:53.726     27,341 kbps     43,769 kbps     00:57:30.280    30,655 kbps     00:57:27.043    28,946 kbps     00:57:22.071    114,034 bytes   640,646 bytes   00:52:39.956
14              0:57:33.650     0:02:29.249     27,295 kbps     44,542 kbps     00:59:51.287    30,914 kbps     00:59:47.283    29,207 kbps     00:59:42.278    113,919 bytes   640,912 bytes   00:59:28.598
STREAM DIAGNOSTICS:
File            PID             Type            Codec           Language                Seconds                 Bitrate                 Bytes           Packets
----            ---             ----            -----           --------                --------------          --------------          -------------   -----
00007.M2TS      4113 (0x1011)   0x1B            AVC                                     3595.792                27,382                  12,307,632,693  66,951,672
00007.M2TS      4352 (0x1100)   0x80            LPCM            jpn (Japanese)          3595.792                4,614                   2,074,094,932   11,506,768
00007.M2TS      4353 (0x1101)   0x86            DTS-HD MA       jpn (Japanese)          3595.792                3,778                   1,698,237,596   9,792,662
00008.M2TS      4113 (0x1011)   0x1B            AVC                                     6.874                   27,678                  23,780,323      129,350
00008.M2TS      4352 (0x1100)   0x80            LPCM            jpn (Japanese)          6.874                   4,706                   4,043,368       22,432
00008.M2TS      4353 (0x1101)   0x86            DTS-HD MA       jpn (Japanese)          6.874                   1,591                   1,366,560       8,541
00000.M2TS      4113 (0x1011)   0x1B            AVC                                     0                       0                       2,414           14
QUICK SUMMARY:
Disc Label: CORNELIUS_MELLOW_WAVES_VISUALSDisc Size: 49,300,060,676 bytesProtection: AACSPlaylist: 00002.MPLSSize: 16,998,193,152 bytesLength: 1:00:02.899Total Bitrate: 37.74 MbpsVideo: MPEG-4 AVC Video / 27381 kbps / 1080i / 29.970 fps / 16:9 / High Profile 4.1Audio: Japanese / LPCM Audio / 2.0 / 96 kHz / 4608 kbps / 24-bitAudio: Japanese / DTS-HD Master Audio / 5.1 / 96 kHz / 3774 kbps / 24-bit (DTS Core: 6.1 / 48 kHz / 1509 kbps / 24-bit)
********************PLAYLIST: 00004.MPLS********************[/pre]
Total   Video
Title                                                           Codec   Length  Movie Size      Disc Size       Bitrate Bitrate Main Audio Track                          Secondary Audio Track
-----                                                           ------  ------- --------------  --------------  ------- ------- ------------------                        ---------------------
00004.MPLS                                                      AVC     0:56:37 10,828,800,000  49,300,060,676  25.50   22.01   LPCM 2.0 2304Kbps (48kHz/24-bit)
DISC INFO:
Disc Label:     CORNELIUS_MELLOW_WAVES_VISUALS
Disc Size:      49,300,060,676 bytes
Protection:     AACS
BDInfo:         0.7.5.5
PLAYLIST REPORT:
Name:                   00004.MPLS
Length:                 0:56:37.026 (h:m:s.ms)
Size:                   10,828,800,000 bytes
Total Bitrate:          25.50 Mbps
VIDEO:
Codec                   Bitrate             Description
-----                   -------             -----------
MPEG-4 AVC Video        22009 kbps          1080i / 29.970 fps / 16:9 / High Profile 4.1
AUDIO:
Codec                           Language        Bitrate         Description
-----                           --------        -------         -----------
LPCM Audio                      Japanese        2304 kbps       2.0 / 48 kHz /  2304 kbps / 24-bit
FILES:
Name            Time In         Length          Size            Total Bitrate
----            -------         ------          ----            -------------
00011.M2TS      0:00:00.000     0:56:29.986     10,801,754,112  25,491
00012.M2TS      0:56:29.986     0:00:07.006     27,039,744      30,872
00000.M2TS      0:56:36.993     0:00:00.033     6,144           1,473
CHAPTERS:
Number          Time In         Length          Avg Video Rate  Max 1-Sec Rate  Max 1-Sec Time  Max 5-Sec Rate  Max 5-Sec Time  Max 10Sec Rate  Max 10Sec Time  Avg Frame Size  Max Frame Size  Max Frame Time
------          -------         ------          --------------  --------------  --------------  --------------  --------------  --------------  --------------  --------------  --------------  --------------
1               0:00:00.000     0:01:15.241     22,644 kbps     31,376 kbps     00:00:40.373    28,199 kbps     00:00:36.369    27,465 kbps     00:00:31.398    94,401 bytes    268,681 bytes   00:00:36.403
2               0:01:15.241     0:03:12.258     22,725 kbps     30,346 kbps     00:02:32.452    28,032 kbps     00:01:57.750    27,681 kbps     00:01:52.645    94,783 bytes    630,759 bytes   00:01:28.321
3               0:04:27.500     0:01:36.496     19,718 kbps     29,877 kbps     00:05:40.773    27,903 kbps     00:05:38.771    27,638 kbps     00:05:31.798    82,241 bytes    386,733 bytes   00:05:29.962
4               0:06:03.996     0:02:06.860     19,838 kbps     29,692 kbps     00:06:16.209    27,644 kbps     00:06:16.943    27,474 kbps     00:06:16.542    82,741 bytes    627,072 bytes   00:06:06.866
5               0:08:10.857     0:02:50.937     21,266 kbps     31,290 kbps     00:10:39.538    28,147 kbps     00:08:49.195    27,743 kbps     00:08:48.861    88,698 bytes    634,382 bytes   00:10:16.449
6               0:11:01.794     0:02:01.054     19,215 kbps     29,497 kbps     00:12:31.350    27,801 kbps     00:11:20.646    26,787 kbps     00:11:57.683    80,143 bytes    632,994 bytes   00:11:03.396
7               0:13:02.848     0:02:37.757     24,056 kbps     30,447 kbps     00:14:34.907    27,920 kbps     00:15:03.736    27,586 kbps     00:15:01.100    100,332 bytes   381,351 bytes   00:13:18.864
8               0:15:40.606     0:02:46.933     19,882 kbps     32,160 kbps     00:18:26.271    28,468 kbps     00:18:22.267    27,944 kbps     00:18:17.229    82,926 bytes    636,959 bytes   00:16:25.017
9               0:18:27.539     0:02:13.500     19,998 kbps     31,561 kbps     00:18:29.741    27,615 kbps     00:19:49.855    27,348 kbps     00:19:52.291    83,408 bytes    630,307 bytes   00:18:57.136
10              0:20:41.039     0:04:32.939     20,519 kbps     29,944 kbps     00:21:05.430    27,984 kbps     00:24:17.722    27,789 kbps     00:24:25.464    85,581 bytes    635,334 bytes   00:20:45.544
11              0:25:13.979     0:03:55.101     22,112 kbps     29,711 kbps     00:26:56.548    27,951 kbps     00:26:56.648    27,632 kbps     00:26:55.847    92,225 bytes    612,128 bytes   00:25:15.247
12              0:29:09.080     0:03:53.866     21,393 kbps     32,232 kbps     00:31:51.009    27,967 kbps     00:32:45.263    27,638 kbps     00:32:51.669    89,226 bytes    621,839 bytes   00:29:10.381
13              0:33:02.947     0:00:24.190     20,124 kbps     28,354 kbps     00:33:23.334    26,327 kbps     00:33:21.966    23,970 kbps     00:33:16.961    83,936 bytes    636,655 bytes   00:33:06.651
14              0:33:27.138     0:04:43.716     24,120 kbps     30,472 kbps     00:37:03.020    27,991 kbps     00:36:27.518    27,739 kbps     00:36:04.362    100,600 bytes   616,627 bytes   00:33:30.808
15              0:38:10.855     0:05:09.876     24,842 kbps     34,803 kbps     00:39:10.181    28,187 kbps     00:39:27.198    27,681 kbps     00:38:18.896    103,613 bytes   615,069 bytes   00:38:15.292
16              0:43:20.731     0:02:56.743     19,716 kbps     30,249 kbps     00:43:26.403    27,980 kbps     00:43:46.290    27,714 kbps     00:45:10.674    82,232 bytes    618,523 bytes   00:43:25.202
17              0:46:17.474     0:02:14.968     23,660 kbps     32,257 kbps     00:46:17.608    27,917 kbps     00:46:52.509    27,573 kbps     00:48:09.820    98,683 bytes    639,067 bytes   00:46:21.478
18              0:48:32.442     0:07:11.230     22,657 kbps     29,610 kbps     00:53:47.123    27,977 kbps     00:52:22.572    27,722 kbps     00:52:19.236    94,498 bytes    639,516 bytes   00:48:35.646
19              0:55:43.673     0:00:53.353     23,420 kbps     42,555 kbps     00:56:30.720    30,229 kbps     00:56:29.953    27,825 kbps     00:56:11.101    97,865 bytes    640,646 bytes   00:56:29.986
STREAM DIAGNOSTICS:
File            PID             Type            Codec           Language                Seconds                 Bitrate                 Bytes           Packets
----            ---             ----            -----           --------                --------------          --------------          -------------   -----
00011.M2TS      4113 (0x1011)   0x1B            AVC                                     3389.887                21,999                  9,321,864,288   50,721,562
00011.M2TS      4352 (0x1100)   0x80            LPCM            jpn (Japanese)          3389.887                2,310                   979,029,112     5,423,984
00012.M2TS      4113 (0x1011)   0x1B            AVC                                     6.874                   27,678                  23,780,323      129,350
00012.M2TS      4352 (0x1100)   0x80            LPCM            jpn (Japanese)          6.874                   2,356                   2,024,488       11,216
00000.M2TS      4113 (0x1011)   0x1B            AVC                                     0                       0                       2,414           14
QUICK SUMMARY:
Disc Label: CORNELIUS_MELLOW_WAVES_VISUALSDisc Size: 49,300,060,676 bytesProtection: AACSPlaylist: 00004.MPLSSize: 10,828,800,000 bytesLength: 0:56:37.026Total Bitrate: 25.50 MbpsVideo: MPEG-4 AVC Video / 22009 kbps / 1080i / 29.970 fps / 16:9 / High Profile 4.1Audio: Japanese / LPCM Audio / 2.0 / 48 kHz / 2304 kbps / 24-bit[/pre]

Скриншоты


[protorrent.xyz]_t-5865036
Torrent: Registered ·  [ 2020-03-28 04:40 ] ·  33972e2e877c8cc5c288f7ee79b922a2718adb50

233 KB

Status: checked
Completed: 0 times
Size: 45.91 GB
Rating: 
(Votes: 0)
Say thanks: 0  Thanks
 
Похожие темы
[Profile] [PM]
Display posts from previous:    
Reply to topic

The time now is: Today 13:46

All times are GMT + 7 Hours



You cannot post new topics in this forum
You cannot reply to topics in this forum
You cannot edit your posts in this forum
You cannot delete your posts in this forum
You cannot vote in polls in this forum
You cannot attach files in this forum
You can download files in this forum