Register · 
Username: Password:
 ·  Forgot password?

[TR24][OF] Emika - Klavirni Temna - 2020 (Electro | Trip-Hop | Dubstep)

Reply to topic
DL-List and Torrent activity [Update пиров]
Size:  417 MB   |    Registered:  2 months 10 days   |    Completed:  0 times

Seeder not seen: Never

 
   
 
 
 
Author Message

Nestor_13 ®

Gender:

Longevity: 6 years 8 months

Posts: 23904

Post 28-Mar-2020 04:40

[Quote]


Emika

Klavirni Temna



• Формат записи | Источник записи: [TR24][OF]
• Наличие водяных знаков: Нет
• Год издания релиза: 2020
• Жанр: Electro | Trip-Hop | Dubstep
• Продолжительность: 00:44:10
• Источник: internet
• WEB релиз: ссылка
• Контейнер: FLAC (*.flac)
• Тип рипа: tracks
• Разрядность: 24/44,1
• Формат: WAV (flac.ape.wv)
• Количество каналов: 2.0
• Наличие сканов: front
Tracklist:
01 - Dilo 21 (00:04:08)
02 - Dilo 22 (00:03:12)
03 - Dilo 23 (00:03:37)
04 - Dilo 24 (00:02:15)
05 - Dilo 25 (00:02:55)
06 - Dilo 26 (00:03:38)
07 - Dilo 27 (00:02:17)
08 - Dilo 28 (00:02:30)
09 - Dilo 29 (00:02:51)
10 - Dilo 30 (00:04:16)
11 - Dilo 31 (00:02:15)
12 - Dilo 32 (00:03:03)
13 - Dilo 33 (00:03:18)
14 - Dilo 34 (00:03:55)
-

• Замер динамического диапазона •

foobar2000 1.4.2 / Dynamic Range Meter 1.1.1log date: 2020-02-12 22:21:37
--------------------------------------------------------------------------------Analyzed: Emika / Klavirni Temna--------------------------------------------------------------------------------
DR Peak RMS Duration Track--------------------------------------------------------------------------------DR10 -1.06 dB -15.55 dB 4:08 01-Dilo 21DR10 -1.10 dB -14.48 dB 3:12 02-Dilo 22DR10 -1.05 dB -13.99 dB 3:37 03-Dilo 23DR11 -1.06 dB -15.48 dB 2:15 04-Dilo 24DR10 -1.06 dB -15.24 dB 2:55 05-Dilo 25DR10 -1.07 dB -14.17 dB 3:38 06-Dilo 26DR10 -1.09 dB -14.04 dB 2:18 07-Dilo 27DR12 -1.06 dB -16.06 dB 2:30 08-Dilo 28DR11 -1.06 dB -15.01 dB 2:51 09-Dilo 29DR12 -1.59 dB -17.04 dB 4:16 10-Dilo 30DR11 -1.06 dB -16.60 dB 2:15 11-Dilo 31DR12 -1.06 dB -16.11 dB 3:03 12-Dilo 32DR10 -1.06 dB -14.78 dB 3:18 13-Dilo 33DR11 -1.06 dB -16.15 dB 3:55 14-Dilo 34--------------------------------------------------------------------------------
Number of tracks: 14Official DR value: DR11
Samplerate: 44100 HzChannels: 2Bits per sample: 24Bitrate: 1432 kbpsCodec: FLAC================================================================================
-
[protorrent.xyz]_t-5849915
Torrent: Registered ·  [ 2020-03-28 04:40 ] ·  53d4804a07ce636059cfdb95b8a749343ec5806c

17 KB

Status: checked
Completed: 0 times
Size: 417 MB
Rating: 
(Votes: 0)
Say thanks: 0  Thanks
 
Похожие темы
[Profile] [PM]
Display posts from previous:    
Reply to topic

The time now is: Today 17:41

All times are GMT + 7 Hours



You cannot post new topics in this forum
You cannot reply to topics in this forum
You cannot edit your posts in this forum
You cannot delete your posts in this forum
You cannot vote in polls in this forum
You cannot attach files in this forum
You can download files in this forum