Register · 
Username: Password:
 ·  Forgot password?

[TR24][OF] 1 Mile North - 2016 - Awakened By Decay; 2020 - Tombs & Cocoons (Ambient / Post-Rock)

Reply to topic
DL-List and Torrent activity [Update пиров]
Size:  1.19 GB   |    Registered:  2 months 9 days   |    Completed:  0 times

Seeder not seen: Never

 
   
 
 
 
Author Message

Nestor_13 ®

Gender:

Longevity: 6 years 8 months

Posts: 23904

Post 28-Mar-2020 04:40

[Quote]

1 Mile North Формат записи/Источник записи: [TR24][OF]
Наличие водяных знаков: Нет
Годы издания: 2016-2020
Жанр: Ambient
Общая продолжительность: 01:52:00
Наличие сканов в содержимом раздачи: Только обложка альбома

2016 - Awakened By Decay (01:07:56)

Издатель(лейбл): Wortcunner Records
Источник (релизер): bandcamp
Треклист:
01. Broken Corners [9:33]
02. Rocky Beaches [7:52]
03. The Black Sea Between Us [8:26]
04. November [8:50]
05. To The Many Places I'll Never Go [8:00]
06. Underground Waves [8:39]
07. Beyond Darkness [16:36]
Контейнер: FLAC (*.flac)
Тип рипа: tracks
Разрядность: 24/96
Формат: PCM
Количество каналов: 2.0

Динамический диапазон

foobar2000 1.3.12 / Dynamic Range Meter 1.1.1log date: 2016-12-15 13:12:03
--------------------------------------------------------------------------------Analyzed: 1 Mile North / Awakened By Decay--------------------------------------------------------------------------------
DR Peak RMS Duration Track--------------------------------------------------------------------------------DR10 -0.40 dB -14.67 dB 9:33 01-Broken CornersDR9 0.00 dB -11.65 dB 7:52 02-Rocky BeachesDR10 -0.10 dB -14.76 dB 8:26 03-The Black Sea Between UsDR8 -0.90 dB -12.58 dB 8:50 04-NovemberDR12 -0.60 dB -17.64 dB 8:00 05-To The Many Places I'll Never GoDR11 -0.78 dB -14.79 dB 8:39 06-Underground Waves--------------------------------------------------------------------------------
Number of tracks: 6Official DR value: DR10
Samplerate: 96000 HzChannels: 2Bits per sample: 24Bitrate: 2211 kbpsCodec: FLAC================================================================================
foobar2000 1.3.12 / Dynamic Range Meter 1.1.1log date: 2016-12-15 13:11:12
--------------------------------------------------------------------------------Statistics for: 07-Beyond DarknessNumber of samples: 47805545Duration: 16:36--------------------------------------------------------------------------------
Left Right
Peak Value: -0.20 dB --- -0.10 dBAvg RMS: -15.99 dB --- -15.38 dBDR channel: 12.21 dB --- 11.54 dB--------------------------------------------------------------------------------
Official DR Value: DR12
Samplerate: 48000 HzChannels: 2Bits per sample: 16Bitrate: 513 kbpsCodec: FLAC================================================================================

Скриншот спектра частот

2020 - Tombs & Cocoons (44:10)

Издатель(лейбл): Wortcunner Records
Источник (релизер): bandcamp
Треклист:
01. Shadows On Mile Hill [7:40]
02. Drying The Fuse [7:09]
03. Lay Down Ghost [4:26]
04. Lost In The Middle [3:58]
05. True Till Death [4:23]
06. Ascending From Stone [7:56]
07. Reservations [4:03]
08. Deja Vu With Pajo [4:36]
Контейнер: FLAC (*.flac)
Тип рипа: tracks
Разрядность: 24/44.1
Формат: PCM
Количество каналов: 2.0

Динамический диапазон

foobar2000 1.5.1 / Dynamic Range Meter 1.1.1log date: 2020-02-21 20:26:19
--------------------------------------------------------------------------------Analyzed: 1 Mile North / Tombs & Cocoons--------------------------------------------------------------------------------
DR Peak RMS Duration Track--------------------------------------------------------------------------------DR10 -0.22 dB -14.52 dB 7:40 01-Shadows On Mile HillDR10 -0.21 dB -12.23 dB 7:09 02-Drying The FuseDR8 -0.21 dB -10.78 dB 4:26 03-Lay Down GhostDR9 -0.22 dB -13.51 dB 3:58 04-Lost In The MiddleDR9 -0.21 dB -11.97 dB 4:23 05-True Till DeathDR11 -0.22 dB -14.84 dB 7:56 06-Ascending From StoneDR11 -0.22 dB -12.85 dB 4:03 07-ReservationsDR11 -0.21 dB -14.61 dB 4:36 08-Deja Vu With Pajo--------------------------------------------------------------------------------
Number of tracks: 8Official DR value: DR10
Samplerate: 44100 HzChannels: 2Bits per sample: 24Bitrate: 1164 kbpsCodec: FLAC================================================================================

Скриншот спектра частот

Внимание! Для получения полной дискографии необходимо скачать также данную раздачу. Обе попадают в одну и ту же папку.
[protorrent.xyz]_t-5326488
Torrent: Registered ·  [ 2020-03-28 04:40 ] ·  afda029ef8826b37973109d1d3f0239e72465212

50 KB

Status: checked
Completed: 0 times
Size: 1.19 GB
Rating: 
(Votes: 0)
Say thanks: 0  Thanks
 
Похожие темы
[Profile] [PM]
Display posts from previous:    
Reply to topic

The time now is: Today 14:11

All times are GMT + 7 Hours



You cannot post new topics in this forum
You cannot reply to topics in this forum
You cannot edit your posts in this forum
You cannot delete your posts in this forum
You cannot vote in polls in this forum
You cannot attach files in this forum
You can download files in this forum