Register · 
Username: Password:
 ·  Forgot password?

[TR24][OF] MEUTE - Puls - 2020 (Nu-Jazz | Broken Beat)

Reply to topic
DL-List and Torrent activity [Update пиров]
Size:  587 MB   |    Registered:  2 months 9 days   |    Completed:  0 times

Seeder not seen: Never

 
   
 
 
 
Author Message

Nestor_13 ®

Gender:

Longevity: 6 years 8 months

Posts: 23904

Post 28-Mar-2020 04:40

[Quote]


MEUTE

Puls



• Формат записи | Источник записи: [TR24][OF]
• Наличие водяных знаков: Нет
• Страна: Germany
• Год издания релиза: 2020
• Жанр: Nu-Jazz | Broken Beat
• Лейбл: TUMULT
• Продолжительность: 00:54:28
• Источник: internet
• WEB релиз: ссылка
• Контейнер: FLAC (*.flac)
• Тип рипа: tracks
• Разрядность: 24/44,1
• Формат: WAV (flac.ape.wv)
• Количество каналов: 2.0
• Наличие сканов: front
Tracklist:
01 - Panda (00:03:42)
02 - Holy Harbour (00:05:15)
03 - What Else Is There (00:06:44)
04 - Push (00:06:47)
05 - Purple Noise (00:05:22)
06 - Slip (00:07:07)
07 - Unfolding (00:04:50)
08 - Endling (00:05:24)
09 - Raw (00:05:09)
10 - Rushing Back (00:04:05)
-

• Замер динамического диапазона •

foobar2000 1.4.2 / Dynamic Range Meter 1.1.1log date: 2020-02-22 12:56:42
--------------------------------------------------------------------------------Analyzed: MEUTE / Puls--------------------------------------------------------------------------------
DR Peak RMS Duration Track--------------------------------------------------------------------------------DR8 -0.51 dB -11.88 dB 3:42 01-PandaDR8 -0.51 dB -10.15 dB 5:15 02-Holy HarbourDR8 -0.51 dB -10.31 dB 6:45 03-What Else Is There?DR8 -0.51 dB -10.74 dB 6:47 04-PushDR8 -0.51 dB -10.77 dB 5:22 05-Purple NoiseDR7 -0.51 dB -10.67 dB 7:08 06-SlipDR9 -0.51 dB -11.07 dB 4:50 07-UnfoldingDR8 -0.51 dB -10.56 dB 5:24 08-EndlingDR6 -0.51 dB -9.16 dB 5:10 09-RawDR8 -0.51 dB -10.67 dB 4:05 10-Rushing Back--------------------------------------------------------------------------------
Number of tracks: 10Official DR value: DR8
Samplerate: 44100 HzChannels: 2Bits per sample: 24Bitrate: 1513 kbpsCodec: FLAC================================================================================
-
[protorrent.xyz]_t-5855122
Torrent: Registered ·  [ 2020-03-28 04:40 ] ·  a704b6d9d1dbec2c6fc301f72625f89b59df6799

12 KB

Status: checked
Completed: 0 times
Size: 587 MB
Rating: 
(Votes: 0)
Say thanks: 0  Thanks
 
Похожие темы
[Profile] [PM]
Display posts from previous:    
Reply to topic

The time now is: Today 13:23

All times are GMT + 7 Hours



You cannot post new topics in this forum
You cannot reply to topics in this forum
You cannot edit your posts in this forum
You cannot delete your posts in this forum
You cannot vote in polls in this forum
You cannot attach files in this forum
You can download files in this forum