Register · 
Username: Password:
 ·  Forgot password?

[TR24][OF] Andras - Joyful - 2020 (House)

Reply to topic
DL-List and Torrent activity [Update пиров]
Size:  369 MB   |    Registered:  2 months 8 days   |    Completed:  0 times

Seeder not seen: Never

 
   
 
 
 
Author Message

Nestor_13 ®

Gender:

Longevity: 6 years 8 months

Posts: 23904

Post 28-Mar-2020 03:30

[Quote]


Andras

Joyful



• Формат записи | Источник записи: [TR24][OF]
• Наличие водяных знаков: Нет
• Год издания релиза: 2020
• Жанр: House
• Лейбл: Beats In Space
• Продолжительность: 00:35:50
• Источник: internet
• WEB релиз: ссылка
• Контейнер: FLAC (*.flac)
• Тип рипа: tracks
• Разрядность: 24/44,1
• Формат: WAV (flac.ape.wv)
• Количество каналов: 2.0
• Наличие сканов: front
Tracklist:
01 - Honeybird (00:04:35)
02 - Live Forever (00:05:54)
03 - Poppy (00:04:35)
04 - River Red (00:04:37)
05 - Harf Green (00:05:17)
06 - Saga of Sweetheart (00:05:27)
07 - Goggles (00:05:25)
--

• Замер динамического диапазона ~ DR 7 •

foobar2000 1.4.2 / Замер динамического диапазона (DR) 1.1.1Дата отчёта:  2020-03-24 09:50:07
--------------------------------------------------------------------------------Анализ: Andras / Joyful--------------------------------------------------------------------------------
DR Пики RMS Продолжительность трека--------------------------------------------------------------------------------DR7 -0.30 дБ -8.72 дБ 4:35 01-HoneybirdDR6 -0.32 дБ -7.67 дБ 5:54 02-Live ForeverDR7 -0.32 дБ -8.90 дБ 4:36 03-PoppyDR7 -0.32 дБ -8.47 дБ 4:37 04-River RedDR7 -0.30 дБ -8.67 дБ 5:18 05-Harf GreenDR6 -0.32 дБ -7.78 дБ 5:28 06-Saga of SweetheartDR7 -0.32 дБ -9.29 дБ 5:26 07-Goggles--------------------------------------------------------------------------------
Количество треков: 7Реальные значения DR: DR7
Частота: 44100 ГцКаналов: 2Разрядность: 24Битрейт: 1480 кбит/сКодек: FLAC================================================================================
-
[protorrent.xyz]_t-5870138
Torrent: Registered ·  [ 2020-03-28 03:30 ] ·  c4740fb7f90dfe34da473807490502dc1c74d347

15 KB

Status: checked
Completed: 0 times
Size: 369 MB
Rating: 
(Votes: 0)
Say thanks: 0  Thanks
 
Похожие темы
[Profile] [PM]
Display posts from previous:    
Reply to topic

The time now is: Today 13:41

All times are GMT + 7 Hours



You cannot post new topics in this forum
You cannot reply to topics in this forum
You cannot edit your posts in this forum
You cannot delete your posts in this forum
You cannot vote in polls in this forum
You cannot attach files in this forum
You can download files in this forum