Register · 
Username: Password:
 ·  Forgot password?

(Darkwave, Synth Gothic) [CD] L\'Ame Immortelle - Letztes Licht (EP) - 2019, FLAC (image+.cue), lossless

Reply to topic
DL-List and Torrent activity [Update пиров]
Size:  338 MB   |    Registered:  1 year 3 months   |    Completed:  0 times

Seeder not seen: Never

 
   
 
 
 
Author Message

Nestor_13 ®

Gender:

Longevity: 6 years 9 months

Posts: 24407

Post 11-Mar-2019 18:59

[Quote]

L'Ame Immortelle / Letztes Licht (EP)
Жанр: Darkwave, Synth Gothic
Носитель: CD
Год издания: 2019
Издатель (лейбл): Trisol Music Group GmbH
Номер по каталогу: TRI 643 CD
Страна исполнителя (группы): Austria
Аудиокодек: FLAC (*.flac)
Тип рипа: image+.cue
Битрейт аудио: lossless
Продолжительность: 00:49:26
Источник: собственный рип
Наличие сканов в содержимом раздачи: да
Треклист:
01. Letztes Licht (Classic Version)
02. Letztes Licht http://www.youtube.com/watch?v=tKzS55paGz8
03. The Spell
04. In Meinen Träumen
05. Fear (Re-Recorded 2018)
06. Letztes Licht (Blue May Rose Remix)
07. Judgement (Soman Remix)
08. Fallen Angel (Feat. Collection D'Arnell-Andrea)
09. Demon Be Gone (Feat. Dunkelsucht & Chelsey Schill)
10. Lake Of Tears (Feat. My Equinox Divine)
11. Ich Gab Dir Alles (Remix)

Лог создания рипа

Exact Audio Copy V1.3 from 2. September 2016
EAC extraction logfile from 24. February 2019, 3:50
L'Ame Immortelle / Letztes Licht (EP)
Used drive : ATAPI DVD A DH16ABSH Adapter: 2 ID: 0
Read mode : SecureUtilize accurate stream : YesDefeat audio cache : YesMake use of C2 pointers : No
Read offset correction : 6Overread into Lead-In and Lead-Out : NoFill up missing offset samples with silence : YesDelete leading and trailing silent blocks : NoNull samples used in CRC calculations : YesUsed interface : Installed external ASPI interface
Used output format : User Defined EncoderSelected bitrate : 1024 kBit/sQuality : HighAdd ID3 tag : NoCommand line compressor : C:\Program Files (x86)\Exact Audio Copy\Flac\flac.exeAdditional command line options : -V -8 -T "Genre=%genre%" -T "Artist=%artist%" -T "Title=%title%" -T "Album=%albumtitle%" -T "Date=%year%" -T "Tracknumber=%tracknr%" -T "Comment=%comment%" %source%
TOC of the extracted CD
Track | Start | Length | Start sector | End sector --------------------------------------------------------- 1 | 0:00.00 | 3:29.00 | 0 | 15674 2 | 3:29.00 | 5:17.42 | 15675 | 39491 3 | 8:46.42 | 4:49.63 | 39492 | 61229 4 | 13:36.30 | 4:46.61 | 61230 | 82740 5 | 18:23.16 | 4:21.41 | 82741 | 102356 6 | 22:44.57 | 4:40.65 | 102357 | 123421 7 | 27:25.47 | 4:24.71 | 123422 | 143292 8 | 31:50.43 | 5:02.15 | 143293 | 165957 9 | 36:52.58 | 3:31.54 | 165958 | 181836 10 | 40:24.37 | 4:36.43 | 181837 | 202579 11 | 45:01.05 | 4:26.10 | 202580 | 222539
Range status and errors
Selected range
Filename E:\toydollsru\L'Ame Immortelle - Letztes Licht (EP).wav
Peak level 96.5 % Extraction speed 5.5 X Range quality 100.0 % Test CRC 20E8F394 Copy CRC 20E8F394 Copy OK
No errors occurred
AccurateRip summary
Track 1 accurately ripped (confidence 1) [0753CC81] (AR v2)Track 2 accurately ripped (confidence 1) [9C3F9FFA] (AR v2)Track 3 accurately ripped (confidence 1) [6CDD2BC4] (AR v2)Track 4 accurately ripped (confidence 1) [5CBD50D2] (AR v2)Track 5 accurately ripped (confidence 1) [6A743238] (AR v2)Track 6 accurately ripped (confidence 1) [5D2F4709] (AR v2)Track 7 accurately ripped (confidence 1) [4450D7A3] (AR v2)Track 8 accurately ripped (confidence 1) [CC48DB26] (AR v2)Track 9 accurately ripped (confidence 1) [3538FABF] (AR v2)Track 10 accurately ripped (confidence 1) [3DD5249D] (AR v2)Track 11 accurately ripped (confidence 1) [0905DCDF] (AR v2)
All tracks accurately ripped
End of status report
---- CUETools DB Plugin V2.1.6
[CTDB TOCID: Rl7d6yaNPvBRgphTVVeb58BUhRI-] foundSubmit result: Rl7d6yaNPvBRgphTVVeb58BUhRI- has been confirmedTrack | CTDB Status 1 | (3/3) Accurately ripped 2 | (3/3) Accurately ripped 3 | (3/3) Accurately ripped 4 | (3/3) Accurately ripped 5 | (3/3) Accurately ripped 6 | (3/3) Accurately ripped 7 | (3/3) Accurately ripped 8 | (3/3) Accurately ripped 9 | (3/3) Accurately ripped 10 | (3/3) Accurately ripped 11 | (3/3) Accurately ripped
==== Log checksum 5D06335E1AAE7F81A1FCADFCF41CAA52075143597B774935432BE6EEE1DF2DFB ====

Состав

Thomas Rainer - Vocals, Keyboards, Programming
Sonja Kraushofer - Vocals
[protorrent.xyz]_t_5694292
Torrent: Registered ·  [ 2019-03-11 18:53 ] ·  10f5ec64048ef7c3b198fb15749783700aadfdc6

14 KB

Status: checked
Completed: 0 times
Size: 338 MB
Rating: 
(Votes: 0)
Say thanks: 0  Thanks
 
Похожие темы
[Profile] [PM]
Display posts from previous:    
Reply to topic

The time now is: Today 15:07

All times are GMT + 7 Hours



You cannot post new topics in this forum
You cannot reply to topics in this forum
You cannot edit your posts in this forum
You cannot delete your posts in this forum
You cannot vote in polls in this forum
You cannot attach files in this forum
You can download files in this forum